<?xml version="1.0" standalone="no"?>
<!DOCTYPE svg PUBLIC "-//W3C//DTD SVG 1.1//EN" "http://www.w3.org/Graphics/SVG/1.1/DTD/svg11.dtd" >
<svg xmlns="http://www.w3.org/2000/svg">
<metadata>Generated by IcoMoon</metadata>
<defs>
<font id="fwdicon" horiz-adv-x="1024">
<font-face units-per-em="1024" ascent="960" descent="-64" />
<missing-glyph horiz-adv-x="1024" />
<glyph unicode="&#x20;" horiz-adv-x="512" d="" />
<glyph unicode="&#xe900;" glyph-name="10" d="M603.136 193.024c88.064 0 156.672 102.4 156.672 233.472s-68.608 233.472-156.672 233.472c-88.064 0-156.672-102.4-156.672-233.472s68.608-233.472 156.672-233.472zM603.136 619.008c62.464 0 115.712-88.064 115.712-192.512s-53.248-192.512-115.712-192.512c-62.464 0-115.712 88.064-115.712 192.512s53.248 192.512 115.712 192.512zM236.544 559.616l86.016 37.888v-404.48c0-11.264 9.216-20.48 20.48-20.48s20.48 9.216 20.48 20.48v436.224c0 7.168-3.072 13.312-9.216 17.408s-13.312 4.096-19.456 2.048l-114.688-51.2c-10.24-4.096-15.36-16.384-10.24-26.624 4.096-10.24 16.384-15.36 26.624-11.264zM1002.496 456.192h-61.44c-12.288 226.304-196.608 408.576-423.936 417.792v59.392c0 8.192-5.12 15.36-12.288 18.432s-16.384 2.048-22.528-3.072l-68.608-61.44v46.080c0 8.192-5.12 15.36-12.288 18.432s-16.384 2.048-22.528-3.072l-88.064-79.872c-4.096-4.096-6.144-9.216-7.168-14.336 0-5.12 2.048-11.264 6.144-15.36l88.064-89.088c4.096-4.096 9.216-6.144 14.336-6.144 3.072 0 5.12 0 8.192 2.048 7.168 3.072 12.288 10.24 12.288 18.432v53.248l67.584-67.584c4.096-4.096 9.216-6.144 14.336-6.144 3.072 0 5.12 0 8.192 2.048 7.168 3.072 12.288 10.24 12.288 18.432v67.584c204.8-9.216 369.664-172.032 382.976-376.832h-89.088c-11.264 0-20.48-9.216-20.48-20.48s9.216-20.48 20.48-20.48h91.136c-8.192-210.944-181.248-380.928-393.216-385.024v119.808c0 11.264-9.216 20.48-20.48 20.48s-20.48-9.216-20.48-20.48v-117.76c-200.704 17.408-359.424 181.248-367.616 384h115.712c11.264 0 20.48 9.216 20.48 20.48s-9.216 20.48-20.48 20.48h-193.536c-11.264 0-20.48-9.216-20.48-20.48s9.216-20.48 20.48-20.48h36.864c8.192-225.28 185.344-407.552 408.576-424.96v-33.792c0-11.264 9.216-20.48 20.48-20.48s20.48 9.216 20.48 20.48v32.768c235.52 4.096 425.984 191.488 434.176 425.984h61.44c11.264 0 20.48 9.216 20.48 20.48s-9.216 20.48-20.48 20.48zM373.76 814.592l-37.888 37.888 37.888 34.816v-72.704zM476.16 814.592l-37.888 37.888 37.888 34.816v-72.704z" />
<glyph unicode="&#xe901;" glyph-name="AB" d="M1002.496 456.192h-61.44c-12.288 226.304-196.608 408.576-423.936 417.792v59.392c0 8.192-5.12 15.36-12.288 18.432s-16.384 2.048-22.528-3.072l-68.608-61.44v46.080c0 8.192-5.12 15.36-12.288 18.432s-16.384 2.048-22.528-3.072l-88.064-79.872c-4.096-4.096-6.144-9.216-7.168-14.336 0-5.12 2.048-11.264 6.144-15.36l88.064-89.088c4.096-4.096 9.216-6.144 14.336-6.144 3.072 0 5.12 0 8.192 2.048 7.168 3.072 12.288 10.24 12.288 18.432v53.248l67.584-67.584c4.096-4.096 9.216-6.144 14.336-6.144 3.072 0 5.12 0 8.192 2.048 7.168 3.072 12.288 10.24 12.288 18.432v67.584c204.8-9.216 369.664-172.032 382.976-376.832h-89.088c-11.264 0-20.48-9.216-20.48-20.48s9.216-20.48 20.48-20.48h91.136c-8.192-210.944-181.248-380.928-393.216-385.024v119.808c0 11.264-9.216 20.48-20.48 20.48s-20.48-9.216-20.48-20.48v-117.76c-200.704 17.408-359.424 181.248-367.616 384h115.712c11.264 0 20.48 9.216 20.48 20.48s-9.216 20.48-20.48 20.48h-193.536c-11.264 0-20.48-9.216-20.48-20.48s9.216-20.48 20.48-20.48h36.864c8.192-225.28 185.344-407.552 408.576-424.96v-33.792c0-11.264 9.216-20.48 20.48-20.48s20.48 9.216 20.48 20.48v32.768c235.52 4.096 425.984 191.488 434.176 425.984h61.44c11.264 0 20.48 9.216 20.48 20.48s-9.216 20.48-20.48 20.48zM373.76 814.592l-37.888 37.888 37.888 34.816v-72.704zM476.16 814.592l-37.888 37.888 37.888 34.816v-72.704zM512 357.888l-126.976 350.208c-3.072 8.192-10.24 13.312-19.456 13.312 0 0 0 0 0 0-8.192 0-16.384-5.12-19.456-13.312l-163.84-457.728c-4.096-10.24 2.048-22.528 12.288-26.624s22.528 2.048 26.624 12.288l53.248 147.456h185.344l54.272-149.504c0 0 0 0 0 0 1.024-2.048 2.048-3.072 3.072-5.12 0 0 0-1.024 1.024-1.024 1.024-1.024 2.048-3.072 4.096-4.096 0 0 1.024 0 1.024 0 1.024-1.024 3.072-2.048 5.12-2.048 0 0 0 0 0 0 1.024 0 3.072-1.024 4.096-1.024 2.048 0 18.432-2.048 40.96-2.048 52.224 0 140.288 7.168 189.44 52.224 24.576 21.504 36.864 50.176 36.864 83.968 0 40.96-12.288 73.728-37.888 98.304-17.408 17.408-38.912 28.672-61.44 35.84 40.96 19.456 81.92 50.176 81.92 101.376 0 36.864-13.312 67.584-39.936 90.112-43.008 35.84-113.664 45.056-211.968 26.624 0 0 0 0 0 0-1.024 0-2.048 0-2.048-1.024-1.024 0-1.024 0-2.048 0s-1.024-1.024-2.048-1.024c-1.024 0-1.024-1.024-2.048-1.024 0 0-1.024-1.024-1.024-1.024-1.024 0-1.024-1.024-2.048-1.024 0 0-1.024-1.024-1.024-1.024 0-1.024-1.024-1.024-1.024-2.048s-1.024-1.024-1.024-2.048c0-1.024-1.024-1.024-1.024-2.048s0-1.024-1.024-2.048c0-1.024 0-1.024-1.024-2.048 0-1.024 0-1.024 0-2.048s0-2.048 0-2.048c0 0 0 0 0 0v-328.704zM288.768 425.472l76.8 216.064 77.824-216.064h-154.624zM756.736 354.816c0-21.504-7.168-38.912-22.528-53.248-45.056-40.96-140.288-41.984-181.248-40.96v203.776h7.168c45.056 0 130.048 0 171.008-39.936 17.408-17.408 25.6-39.936 25.6-69.632zM714.752 649.728c16.384-13.312 24.576-33.792 24.576-58.368 0-61.44-114.688-83.968-130.048-86.016-18.432 1.024-35.84 1.024-49.152 1.024h-7.168v163.84c74.752 11.264 132.096 4.096 161.792-20.48z" />
<glyph unicode="&#xe902;" glyph-name="author" d="M409.6 451.072c3.072-1.024 6.144-2.048 9.216-4.096l7.168-2.048c3.072-1.024 5.12-2.048 8.192-3.072 24.576-8.192 51.2-12.288 76.8-12.288h2.048c9.216 0 18.432 0 26.624 1.024 3.072 0 6.144 1.024 9.216 1.024l6.144 1.024c4.096 0 7.168 1.024 11.264 2.048 3.072 1.024 5.12 1.024 8.192 2.048l7.168 2.048c3.072 1.024 7.168 2.048 10.24 3.072 2.048 1.024 4.096 1.024 6.144 2.048l6.144 2.048c4.096 1.024 8.192 3.072 12.288 4.096 2.048 1.024 3.072 1.024 5.12 2.048l2.048 1.024c5.12 2.048 11.264 5.12 16.384 8.192l4.096 2.048c6.144 3.072 12.288 7.168 18.432 11.264 3.072 2.048 6.144 5.12 9.216 7.168l10.24 8.192c61.44 50.176 96.256 124.928 96.256 201.728v2.048c0 147.456-119.808 267.264-265.216 267.264-139.264 0-256-109.568-264.192-248.832v-3.072c0-4.096-1.024-9.216-1.024-13.312-1.024-107.52 63.488-202.752 161.792-244.736zM289.792 706.048v4.096c7.168 116.736 105.472 208.896 223.232 208.896 122.88 0 223.232-100.352 224.256-222.208v-2.048c0-66.56-29.696-129.024-81.92-172.032l-10.24-7.168c-2.048-2.048-4.096-3.072-7.168-5.12-5.12-3.072-10.24-6.144-15.36-9.216l-3.072-2.048c-4.096-2.048-9.216-4.096-14.336-7.168l-6.144-3.072c-3.072-1.024-6.144-2.048-10.24-4.096l-7.168-2.048c-1.024 0-3.072-1.024-4.096-1.024-2.048-1.024-5.12-1.024-8.192-2.048l-8.192-2.048c-2.048 0-3.072-1.024-5.12-1.024-3.072-1.024-5.12-1.024-8.192-1.024l-8.192-1.024c-2.048 0-4.096-1.024-6.144-1.024-7.168-1.024-14.336-1.024-20.48-1.024h-2.048c-22.528 0-45.056 3.072-66.56 10.24-2.048 1.024-4.096 1.024-5.12 2.048l-8.192 3.072c-2.048 1.024-5.12 2.048-7.168 3.072-82.944 34.816-136.192 115.712-136.192 205.824 1.024 2.048 1.024 5.12 2.048 9.216zM689.152 359.936l-3.072 1.024c-6.144 3.072-12.288 5.12-19.456 8.192s-14.336 5.12-21.504 8.192c-6.144 2.048-11.264 4.096-17.408 5.12-9.216 2.048-17.408 5.12-26.624 7.168-3.072 1.024-6.144 1.024-9.216 2.048h-2.048c-5.12 1.024-11.264 2.048-16.384 3.072h-4.096c-4.096 1.024-9.216 1.024-14.336 2.048l-16.384 1.024c-19.456 1.024-39.936 1.024-59.392 0h-9.216l-7.168-1.024c-6.144-1.024-12.288-1.024-18.432-2.048h-2.048c-4.096-1.024-8.192-1.024-12.288-2.048s-9.216-2.048-13.312-3.072c-8.192-2.048-17.408-4.096-25.6-6.144-6.144-2.048-13.312-4.096-19.456-6.144l-4.096-2.048c-13.312-5.12-25.6-10.24-38.912-15.36l-3.072-2.048c-144.384-71.68-239.616-222.208-239.616-385.024 0-4.096 0-7.168 0-11.264l1.024-25.6h847.872l1.024 25.6c0 4.096 0 7.168 0 11.264 2.048 165.888-95.232 317.44-246.784 387.072zM128-22.016c2.048 146.432 88.064 280.576 220.16 342.016l4.096 2.048c10.24 5.12 20.48 9.216 31.744 13.312l3.072 1.024c6.144 2.048 11.264 4.096 17.408 5.12 7.168 2.048 15.36 4.096 23.552 6.144 4.096 1.024 8.192 2.048 12.288 2.048 3.072 1.024 6.144 1.024 10.24 2.048h2.048c6.144 1.024 12.288 2.048 17.408 2.048l13.312 1.024c17.408 1.024 34.816 1.024 55.296 0l13.312-1.024c3.072 0 6.144-1.024 10.24-1.024l5.12-1.024c5.12-1.024 10.24-2.048 15.36-2.048h2.048c3.072-1.024 5.12-1.024 8.192-2.048 8.192-2.048 16.384-4.096 24.576-6.144 5.12-2.048 10.24-3.072 15.36-5.12 6.144-2.048 13.312-4.096 19.456-7.168 6.144-2.048 12.288-5.12 18.432-7.168h1.024c135.168-61.44 222.208-196.608 224.256-344.064h-768z" />
<glyph unicode="&#xe903;" glyph-name="basket" d="M978.944 614.912h-389.12v295.936c0 21.504-17.408 38.912-38.912 38.912h-73.728c-21.504 0-38.912-17.408-38.912-38.912v-295.936h-389.12c-25.6 0-47.104-21.504-47.104-47.104v-101.376c0-25.6 21.504-47.104 47.104-47.104h7.168l53.248-375.808c7.168-50.176 50.176-88.064 101.376-88.064h608.256c51.2 0 94.208 37.888 101.376 88.064l53.248 375.808h7.168c25.6 0 47.104 21.504 47.104 47.104v101.376c-2.048 26.624-23.552 47.104-49.152 47.104zM479.232 908.8h69.632v-389.12h-69.632v389.12zM878.592 50.688c-4.096-29.696-30.72-53.248-61.44-53.248h-607.232c-30.72 0-56.32 22.528-61.44 53.248l-51.2 369.664h833.536l-52.224-369.664zM985.088 467.456c0-3.072-3.072-6.144-6.144-6.144h-929.792c-3.072 0-6.144 3.072-6.144 6.144v101.376c0 3.072 3.072 6.144 6.144 6.144h389.12v-57.344c0-21.504 17.408-38.912 38.912-38.912h73.728c21.504 0 38.912 17.408 38.912 38.912v57.344h389.12c3.072 0 6.144-3.072 6.144-6.144v-101.376zM222.208 372.224c-11.264 0-20.48-9.216-20.48-20.48v-285.696c0-11.264 9.216-20.48 20.48-20.48s20.48 9.216 20.48 20.48v285.696c0 11.264-9.216 20.48-20.48 20.48zM338.944 372.224c-11.264 0-20.48-9.216-20.48-20.48v-285.696c0-11.264 9.216-20.48 20.48-20.48s20.48 9.216 20.48 20.48v285.696c0 11.264-9.216 20.48-20.48 20.48zM455.68 372.224c-11.264 0-20.48-9.216-20.48-20.48v-285.696c0-11.264 9.216-20.48 20.48-20.48s20.48 9.216 20.48 20.48v285.696c0 11.264-9.216 20.48-20.48 20.48zM572.416 372.224c-11.264 0-20.48-9.216-20.48-20.48v-285.696c0-11.264 9.216-20.48 20.48-20.48s20.48 9.216 20.48 20.48v285.696c0 11.264-9.216 20.48-20.48 20.48zM689.152 372.224c-11.264 0-20.48-9.216-20.48-20.48v-285.696c0-11.264 9.216-20.48 20.48-20.48s20.48 9.216 20.48 20.48v285.696c0 11.264-9.216 20.48-20.48 20.48zM805.888 372.224c-11.264 0-20.48-9.216-20.48-20.48v-16.384c0-11.264 9.216-20.48 20.48-20.48s20.48 9.216 20.48 20.48v16.384c0 11.264-9.216 20.48-20.48 20.48zM805.888 279.040c-11.264 0-20.48-9.216-20.48-20.48v-191.488c0-11.264 9.216-20.48 20.48-20.48s20.48 9.216 20.48 20.48v191.488c0 11.264-9.216 20.48-20.48 20.48z" />
<glyph unicode="&#xe904;" glyph-name="buffer" d="M41.984 663.040l451.584-217.088c5.12-3.072 11.264-5.12 17.408-5.12 5.12 0 12.288 1.024 17.408 3.072l452.608 219.136c13.312 5.12 22.528 19.456 22.528 34.816s-8.192 28.672-21.504 35.84l-452.608 218.112c-11.264 6.144-24.576 6.144-35.84 0l-451.584-218.112c-13.312-7.168-21.504-20.48-21.504-35.84-1.024-14.336 8.192-27.648 21.504-34.816zM61.44 697.856l449.536 217.088 451.584-218.112-451.584-216.064-449.536 217.088zM963.584 696.832c0 0 0 0 0 0v0c0 0 0 0 0 0zM41.984 415.232l451.584-217.088c5.12-3.072 11.264-5.12 17.408-5.12 5.12 0 12.288 1.024 17.408 3.072l453.632 218.112c13.312 5.12 22.528 19.456 22.528 34.816s-8.192 28.672-21.504 35.84l-104.448 50.176-313.344-149.504c-16.384-8.192-34.816-12.288-54.272-12.288-16.384 0-35.84 4.096-53.248 12.288l-310.272 150.528-105.472-51.2c-13.312-5.12-22.528-19.456-22.528-34.816 0-14.336 8.192-27.648 22.528-34.816zM61.44 450.048c0 0 0 0 0 0s0 0 0 0v0zM62.464 450.048l84.992 40.96 294.912-142.336c21.504-10.24 45.056-15.36 70.656-15.36s50.176 5.12 71.68 15.36l295.936 142.336 83.968-40.96-452.608-217.088-449.536 217.088zM963.584 449.024c0 0 0 0 0 0v0c0 0 0 0 0 0zM983.040 231.936l-104.448 50.176-311.296-150.528c-16.384-8.192-34.816-12.288-54.272-12.288-17.408 0-36.864 4.096-54.272 12.288l-310.272 149.504-105.472-49.152c-13.312-5.12-22.528-18.432-22.528-34.816 0-15.36 8.192-28.672 21.504-35.84l450.56-217.088c5.12-3.072 11.264-5.12 17.408-5.12 5.12 0 12.288 1.024 19.456 4.096l453.632 218.112c13.312 7.168 21.504 20.48 21.504 35.84 1.024 14.336-8.192 28.672-21.504 34.816zM147.456 236.032l294.912-141.312c21.504-10.24 45.056-15.36 70.656-15.36s50.176 5.12 71.68 15.36l294.912 142.336 84.992-41.984-453.632-215.040-449.536 216.064 86.016 39.936z" />
<glyph unicode="&#xe905;" glyph-name="calendar" d="M964.608 888.32h-112.64v45.056c0 12.288-9.216 22.528-22.528 22.528h-116.736c-12.288 0-22.528-9.216-22.528-22.528v-45.056h-357.376v45.056c0 12.288-9.216 22.528-22.528 22.528h-116.736c-12.288 0-22.528-9.216-22.528-22.528v-45.056h-111.616c-12.288 0-21.504-10.24-21.504-22.528v-904.192c0-12.288 9.216-22.528 22.528-22.528h904.192c12.288 0 22.528 9.216 22.528 22.528v905.216c-1.024 12.288-10.24 21.504-22.528 21.504zM943.104 660.992v-675.84h-861.184v675.84h861.184zM216.064 821.76v90.112h73.728v-90.112h-73.728zM735.232 821.76v90.112h73.728v-90.112h-73.728zM194.56 777.728h116.736c12.288 0 22.528 9.216 22.528 22.528v45.056h358.4v-45.056c0-12.288 9.216-22.528 22.528-22.528h117.76c12.288 0 22.528 9.216 22.528 22.528v45.056h90.112v-141.312h-863.232v141.312h90.112v-45.056c0-13.312 10.24-22.528 22.528-22.528zM835.584 569.856h-185.344v1.024h-460.8v-495.616h646.144v494.592zM792.576 224.768v-106.496h-107.52v106.496h107.52zM685.056 419.328v107.52h106.496v-107.52h-106.496zM792.576 375.296v-106.496h-107.52v106.496h107.52zM642.048 224.768v-106.496h-107.52v106.496h107.52zM642.048 375.296v-106.496h-107.52v106.496h107.52zM642.048 526.848v-107.52h-107.52v107.52h107.52zM490.496 224.768v-106.496h-107.52v106.496h107.52zM490.496 375.296v-107.52h-107.52v107.52h107.52zM490.496 526.848v-107.52h-107.52v107.52h107.52zM339.968 224.768v-106.496h-107.52v106.496h107.52zM339.968 375.296v-107.52h-107.52v107.52h107.52zM339.968 526.848v-107.52h-107.52v107.52h107.52z" />
<glyph unicode="&#xe906;" glyph-name="cast" d="M59.392 129.536c-26.624 0-49.152-21.504-49.152-49.152s21.504-49.152 49.152-49.152c26.624 0 49.152 21.504 49.152 49.152s-22.528 49.152-49.152 49.152zM41.984 515.584c-11.264 0-20.48-9.216-20.48-20.48s9.216-20.48 20.48-20.48c223.232 0 403.456-181.248 403.456-403.456 0-11.264 9.216-20.48 20.48-20.48s20.48 9.216 20.48 20.48c1.024 244.736-198.656 444.416-444.416 444.416zM41.984 373.248c-11.264 0-20.48-9.216-20.48-20.48s9.216-20.48 20.48-20.48c144.384 0 262.144-117.76 262.144-262.144 0-11.264 9.216-20.48 20.48-20.48s20.48 9.216 20.48 20.48c0 166.912-136.192 303.104-303.104 303.104zM41.984 236.032c-11.264 0-20.48-9.216-20.48-20.48s9.216-20.48 20.48-20.48c68.608 0 124.928-56.32 124.928-124.928 0-11.264 9.216-20.48 20.48-20.48s20.48 9.216 20.48 20.48c0 91.136-74.752 165.888-165.888 165.888zM924.672 846.336h-821.248c-51.2 0-92.16-40.96-92.16-92.16v-151.552c0-11.264 9.216-20.48 20.48-20.48s20.48 9.216 20.48 20.48v151.552c0 28.672 22.528 51.2 51.2 51.2h821.248c28.672 0 51.2-22.528 51.2-51.2v-611.328c0-28.672-22.528-51.2-51.2-51.2h-353.28c-11.264 0-20.48-9.216-20.48-20.48s9.216-20.48 20.48-20.48h354.304c51.2 0 92.16 40.96 92.16 92.16v611.328c-1.024 50.176-41.984 92.16-93.184 92.16zM848.896 189.952h-279.552c-11.264 0-20.48-9.216-20.48-20.48s9.216-20.48 20.48-20.48h279.552c33.792 0 61.44 27.648 61.44 61.44v465.92c0 33.792-27.648 61.44-61.44 61.44h-672.768c-33.792 0-61.44-27.648-61.44-61.44v-80.896c0-11.264 9.216-20.48 20.48-20.48s20.48 9.216 20.48 20.48v80.896c0 11.264 9.216 20.48 20.48 20.48h673.792c11.264 0 20.48-9.216 20.48-20.48v-465.92c-1.024-11.264-10.24-20.48-21.504-20.48z" />
<glyph unicode="&#xe907;" glyph-name="categories" d="M1013.76 559.616c-4.096 5.12-10.24 8.192-18.432 8.192h-43.008v237.568c0 18.432-14.336 32.768-32.768 32.768h-514.048l-40.96 68.608c-5.12 9.216-15.36 15.36-27.648 15.36h-232.448c-18.432 0-32.768-14.336-32.768-32.768v-321.536h-44.032c-6.144 0-13.312-3.072-18.432-8.192-5.12-6.144-7.168-12.288-5.12-19.456l82.944-547.84c2.048-12.288 12.288-20.48 23.552-20.48h801.792c11.264 0 21.504 8.192 23.552 20.48l82.944 547.84c2.048 7.168 0 14.336-5.12 19.456zM846.848 647.68v-78.848h-669.696v78.848h669.696zM138.24 686.592v-117.76h-29.696v315.392h222.208l40.96-68.608c5.12-9.216 15.36-15.36 27.648-15.36h513.024v-231.424h-28.672v117.76h-745.472zM978.944 528.896l-78.848-517.12h-776.192l-78.848 517.12h933.888z" />
<glyph unicode="&#xe908;" glyph-name="CC" d="M27.648 112.128h403.456c11.264 0 20.48 9.216 20.48 20.48v189.44c0 11.264-9.216 20.48-20.48 20.48h-185.344v396.288h184.32c11.264 0 20.48 9.216 20.48 20.48v174.080c0 11.264-9.216 20.48-20.48 20.48h-402.432c-11.264 0-20.48-9.216-20.48-20.48v-800.768c0-11.264 9.216-20.48 20.48-20.48zM48.128 912.896h362.496v-133.12h-185.344c-11.264 0-20.48-9.216-20.48-20.48v-437.248c0-11.264 9.216-20.48 20.48-20.48h184.32v-148.48h-361.472v759.808zM591.872 112.128h403.456c11.264 0 20.48 9.216 20.48 20.48v189.44c0 11.264-9.216 20.48-20.48 20.48h-184.32v396.288h184.32c11.264 0 20.48 9.216 20.48 20.48v174.080c0 11.264-9.216 20.48-20.48 20.48h-403.456c-11.264 0-20.48-9.216-20.48-20.48v-800.768c0-11.264 9.216-20.48 20.48-20.48zM612.352 912.896h362.496v-133.12h-184.32c-11.264 0-20.48-9.216-20.48-20.48v-437.248c0-11.264 9.216-20.48 20.48-20.48h184.32v-148.48h-362.496v759.808zM1004.544 2.56h-982.016c-11.264 0-20.48-9.216-20.48-20.48s9.216-20.48 20.48-20.48h982.016c11.264 0 20.48 9.216 20.48 20.48s-9.216 20.48-20.48 20.48z" />
<glyph unicode="&#xe909;" glyph-name="CC-off" d="M27.648-61.952h403.456c11.264 0 20.48 9.216 20.48 20.48v189.44c0 11.264-9.216 20.48-20.48 20.48h-185.344v570.368h184.32c11.264 0 20.48 9.216 20.48 20.48v174.080c0 11.264-9.216 20.48-20.48 20.48h-402.432c-11.264 0-20.48-9.216-20.48-20.48v-974.848c0-11.264 9.216-20.48 20.48-20.48zM48.128 912.896h362.496v-133.12h-185.344c-11.264 0-20.48-9.216-20.48-20.48v-611.328c0-11.264 9.216-20.48 20.48-20.48h184.32v-148.48h-361.472v933.888zM591.872-61.952h403.456c11.264 0 20.48 9.216 20.48 20.48v189.44c0 11.264-9.216 20.48-20.48 20.48h-184.32v570.368h184.32c11.264 0 20.48 9.216 20.48 20.48v174.080c0 11.264-9.216 20.48-20.48 20.48h-403.456c-11.264 0-20.48-9.216-20.48-20.48v-974.848c0-11.264 9.216-20.48 20.48-20.48zM612.352 912.896h362.496v-133.12h-184.32c-11.264 0-20.48-9.216-20.48-20.48v-611.328c0-11.264 9.216-20.48 20.48-20.48h184.32v-148.48h-362.496v933.888z" />
<glyph unicode="&#xe90a;" glyph-name="clipboard" d="M856.064 771.584c0 34.816-33.792 46.080-51.2 47.104h-100.352v21.504c0 33.792-27.648 46.080-46.080 46.080h-10.24c-9.216 0-14.336 6.144-14.336 18.432v8.192c0 13.312-5.12 24.576-13.312 31.744-5.12 5.12-15.36 10.24-30.72 10.24h-149.504c-5.12 0-19.456 0-30.72-11.264-5.12-5.12-13.312-15.36-13.312-31.744v-7.168c0-3.072-1.024-18.432-14.336-18.432h-10.24c-18.432 0-46.080-12.288-46.080-46.080v-21.504h-100.352c-23.552-2.048-50.176-17.408-50.176-47.104v-778.24c0-20.48 12.288-53.248 45.056-53.248h592.896c30.72 0 43.008 28.672 45.056 53.248l-2.048 778.24zM593.92 914.944c0 0 0-1.024 0-2.048v-11.264c0-1.024 0-4.096 1.024-7.168 3.072-22.528 19.456-48.128 54.272-48.128h10.24c5.12 0 5.12-2.048 5.12-5.12v-79.872c0-3.072-1.024-5.12-7.168-7.168h-282.624c-6.144 2.048-7.168 4.096-7.168 7.168v78.848c0 4.096 0 5.12 5.12 5.12h10.24c28.672 0 49.152 18.432 54.272 49.152 1.024 1.024 1.024 3.072 1.024 5.12v13.312c0 1.024 0 1.024 0 2.048 0 0 1.024 0 3.072 0h149.504c2.048 0 3.072 0 3.072 0zM705.536 761.344v18.432h99.328c0 0 11.264-1.024 11.264-7.168v-776.192c0-5.12-2.048-12.288-4.096-13.312h-590.848c-2.048 1.024-4.096 7.168-4.096 13.312v775.168c0 6.144 11.264 7.168 11.264 7.168h99.328v-18.432c0-31.744 27.648-45.056 41.984-47.104h295.936c18.432 4.096 39.936 19.456 39.936 48.128zM311.296 479.744h103.424c18.432 0 34.816 15.36 34.816 34.816v103.424c0 18.432-15.36 34.816-34.816 34.816h-103.424c-18.432 0-34.816-15.36-34.816-34.816v-103.424c1.024-19.456 16.384-34.816 34.816-34.816zM317.44 520.704v91.136h91.136v-91.136h-91.136zM311.296 245.248h103.424c18.432 0 34.816 15.36 34.816 34.816v104.448c0 18.432-15.36 34.816-34.816 34.816h-103.424c-18.432 0-34.816-15.36-34.816-34.816v-103.424c1.024-19.456 16.384-35.84 34.816-35.84zM317.44 287.232v91.136h91.136v-91.136h-91.136zM287.744 131.584c-11.264 0-20.48-8.192-20.48-20.48 0-11.264 8.192-20.48 20.48-20.48h452.608c11.264 0 20.48 8.192 20.48 20.48 0 11.264-9.216 20.48-20.48 20.48h-452.608zM603.136 614.912c0-11.264 8.192-20.48 20.48-20.48h108.544c11.264 0 20.48 8.192 20.48 20.48s-8.192 20.48-20.48 20.48h-108.544c-12.288 0-20.48-8.192-20.48-20.48zM461.824 796.16h108.544c11.264 0 20.48 8.192 20.48 20.48s-8.192 20.48-20.48 20.48h-108.544c-11.264 0-20.48-8.192-20.48-20.48 0-11.264 9.216-20.48 20.48-20.48zM623.616 494.080h108.544c11.264 0 20.48 8.192 20.48 20.48 0 11.264-8.192 20.48-20.48 20.48h-108.544c-11.264 0-20.48-8.192-20.48-20.48 0-11.264 8.192-20.48 20.48-20.48zM623.616 359.936h108.544c11.264 0 20.48 8.192 20.48 20.48s-8.192 20.48-20.48 20.48h-108.544c-11.264 0-20.48-8.192-20.48-20.48s8.192-20.48 20.48-20.48zM623.616 260.608h108.544c11.264 0 20.48 8.192 20.48 20.48 0 11.264-8.192 20.48-20.48 20.48h-108.544c-11.264 0-20.48-8.192-20.48-20.48s8.192-20.48 20.48-20.48zM516.096 260.608h47.104c11.264 0 20.48 8.192 20.48 20.48 0 11.264-8.192 20.48-20.48 20.48h-47.104c-11.264 0-20.48-8.192-20.48-20.48-1.024-11.264 8.192-20.48 20.48-20.48zM516.096 359.936h47.104c11.264 0 20.48 8.192 20.48 20.48s-8.192 20.48-20.48 20.48h-47.104c-11.264 0-20.48-8.192-20.48-20.48-1.024-11.264 8.192-20.48 20.48-20.48zM516.096 494.080h47.104c11.264 0 20.48 8.192 20.48 20.48 0 11.264-8.192 20.48-20.48 20.48h-47.104c-11.264 0-20.48-8.192-20.48-20.48-1.024-11.264 8.192-20.48 20.48-20.48zM516.096 594.432h47.104c11.264 0 20.48 8.192 20.48 20.48s-8.192 20.48-20.48 20.48h-47.104c-11.264 0-20.48-8.192-20.48-20.48-1.024-11.264 8.192-20.48 20.48-20.48z" />
<glyph unicode="&#xe90b;" glyph-name="close" d="M481.28 449.024l-482.304-482.304 30.72-30.72 482.304 482.304 482.304-482.304 30.72 30.72-482.304 482.304 480.256 480.256-30.72 30.72-480.256-480.256-480.256 480.256-30.72-30.72 480.256-480.256z" />
<glyph unicode="&#xe90c;" glyph-name="comments" d="M885.76 942.592h-747.52c-76.8 0-138.24-62.464-138.24-138.24v-504.832c0-75.776 61.44-138.24 138.24-138.24h15.36l-1.024-207.872 301.056 207.872h432.128c76.8 0 138.24 62.464 138.24 138.24v504.832c0 75.776-61.44 138.24-138.24 138.24zM984.064 299.52c0-54.272-44.032-98.304-98.304-98.304h-444.416l-248.832-172.032 1.024 172.032h-55.296c-54.272 0-98.304 44.032-98.304 98.304v504.832c0 54.272 44.032 98.304 98.304 98.304h747.52c54.272 0 98.304-44.032 98.304-98.304v-504.832zM370.688 563.712c0-32.768-26.624-59.392-59.392-59.392s-59.392 26.624-59.392 59.392 26.624 59.392 59.392 59.392 59.392-26.624 59.392-59.392zM571.392 563.712c0-32.768-26.624-59.392-59.392-59.392s-59.392 26.624-59.392 59.392 26.624 59.392 59.392 59.392 59.392-26.624 59.392-59.392zM772.096 557.568c0-32.768-26.624-59.392-59.392-59.392s-59.392 26.624-59.392 59.392 26.624 59.392 59.392 59.392c32.768 0 59.392-26.624 59.392-59.392z" />
<glyph unicode="&#xe90d;" glyph-name="creepy-ghost" d="M816.52 98.005c-196.992 19.077-80.889 357.772-39.949 328.833 85.218-42.028 80.863 59.138 218.405-67.458 55.529 162.247 24.769 292.129-41.585 249.174-82.425-58.959-156.080-88.703-141.944-43.761 155.355 417.801-532.237 536.629-585.003 72.174-30.278-57.633-134.188 59.506-174.736 55.589-53.979-14.24-64.853-95.722-36.558-237.865 114.010 109.883 107.704 36.527 198.013 49.642 24.318-371.453 198.030-569.956 607.295-495.682 79.812 17.727 145.282-5.12 203.543-48.188-6.038 75.005-74.785 120.785-207.48 137.542zM363.581 776.757l126.31-124.416c-85.18-42.693-175.865 33.954-126.31 124.416zM656.603 512.122c-9.163-24.427-25.342-49.27-48.592-74.542l-17.942 28.453-42.084-46.824-28.278 49.949-42.942-54.731-16.069 65.427-41.634-42.453-15.382 78.678-44.732-38.593-3.054 69.418-19.806-14.699c-2.363 12.646-4.118 35.577-5.225 68.761 25.534-49.389 70.349-84.016 134.468-103.809 9.085-2.197 19.859-3.952 32.344-5.282 56.727-6.065 109.726 0.692 158.93 20.248zM587.6 638.193l163.789 67.877c11.969-102.448-100.87-139.435-163.789-67.877z" />
<glyph unicode="&#xe90e;" glyph-name="digg" d="M851.968 292.352c17.408 0 35.84 0 53.248 0 7.168 0 12.288 2.048 17.408 7.168 4.096 4.096 7.168 10.24 7.168 17.408 0 57.344 0 114.688 0 172.032 0 2.048 0 3.072 0 5.12 0 1.024 0 2.048-1.024 3.072 0 0 0 0 0 0-3.072 8.192-10.24 14.336-19.456 14.336h-59.392c-11.264 0-20.48-9.216-20.48-20.48v-3.072c0-57.344 0-114.688 0-172.032-1.024-13.312 8.192-23.552 22.528-23.552zM887.808 470.528c0-46.080 0-91.136 0-137.216-3.072 0-6.144 0-9.216 0s-6.144 0-9.216 0c0 46.080 0 91.136 0 137.216h18.432zM1006.592 590.336h-256c-1.024 0-3.072 0-4.096 0 0 0-1.024 0-1.024 0-1.024 0-2.048 0-2.048-1.024 0 0-1.024 0-1.024-1.024-1.024 0-1.024-1.024-2.048-1.024 0 0-1.024-1.024-1.024-1.024-1.024 0-1.024-1.024-2.048-1.024 0 0-1.024-1.024-1.024-1.024-1.024-1.024-1.024-1.024-1.024-2.048 0 0-1.024-1.024-1.024-1.024 0-1.024-1.024-1.024-1.024-2.048 0 0 0-1.024-1.024-1.024 0-1.024-1.024-2.048-1.024-3.072 0 0 0 0 0 0s0 0 0 0 0 0 0 0 0 0 0 0c0 1.024-1.024 2.048-1.024 3.072 0 0 0 1.024-1.024 1.024 0 1.024-1.024 1.024-1.024 2.048 0 0-1.024 1.024-1.024 1.024 0 1.024-1.024 1.024-1.024 2.048 0 0-1.024 1.024-1.024 1.024-1.024 1.024-1.024 1.024-2.048 1.024 0 0-1.024 1.024-1.024 1.024-1.024 0-1.024 1.024-2.048 1.024 0 0-1.024 0-1.024 1.024-1.024 0-2.048 1.024-2.048 1.024s-1.024 0-1.024 0-3.072 0-4.096 0h-256c-1.024 0-3.072 0-4.096 0 0 0-1.024 0-1.024 0-1.024 0-2.048 0-2.048-1.024 0 0-1.024 0-1.024-1.024-1.024 0-1.024-1.024-2.048-1.024 0 0-1.024-1.024-1.024-1.024-1.024 0-1.024-1.024-2.048-1.024 0 0-1.024-1.024-1.024-1.024-1.024-1.024-1.024-1.024-1.024-2.048 0 0-1.024-1.024-1.024-1.024-1.024-1.024-1.024-2.048-1.024-2.048s0 0 0-1.024-1.024-2.048-1.024-3.072c0 0 0 0 0 0 0 1.024-1.024 3.072-2.048 4.096 0 0 0 1.024-1.024 1.024-1.024 1.024-2.048 3.072-3.072 4.096 0 0 0 0 0 0-1.024 1.024-2.048 2.048-4.096 3.072 0 0-1.024 0-1.024 1.024-1.024 1.024-3.072 1.024-5.12 2.048 0 0 0 0 0 0 1.024 0 2.048 1.024 4.096 1.024 0 0 1.024 0 1.024 0 1.024 0 2.048 1.024 2.048 1.024s1.024 1.024 1.024 1.024c1.024 0 1.024 1.024 2.048 1.024 0 0 1.024 1.024 1.024 1.024 1.024 1.024 1.024 1.024 1.024 2.048 0 0 1.024 1.024 1.024 1.024 0 1.024 1.024 1.024 1.024 2.048 0 0 0 1.024 1.024 1.024 0 1.024 1.024 2.048 1.024 2.048s0 1.024 0 1.024 0 3.072 0 4.096v98.304c0 11.264-9.216 20.48-20.48 20.48h-98.304c-1.024 0-3.072 0-4.096 0 0 0-1.024 0-1.024 0-1.024 0-2.048 0-2.048-1.024 0 0-1.024 0-1.024-1.024-1.024 0-1.024-1.024-2.048-1.024 0 0-1.024-1.024-1.024-1.024-1.024 0-1.024-1.024-2.048-1.024 0 0-1.024-1.024-1.024-1.024-1.024-1.024-1.024-1.024-2.048-2.048 0 0 0-1.024-1.024-1.024-1.024-1.024-1.024-2.048-1.024-3.072 0 0 0 0 0 0 0-1.024-1.024-2.048-1.024-3.072 0 1.024-1.024 2.048-1.024 3.072 0 0 0 0 0 1.024s-1.024 2.048-1.024 3.072c0 0 0 1.024-1.024 1.024 0 1.024-1.024 1.024-2.048 2.048 0 0-1.024 1.024-1.024 1.024-1.024 1.024-1.024 1.024-2.048 1.024 0 0-1.024 1.024-1.024 1.024-1.024 0-1.024 1.024-2.048 1.024 0 0-1.024 0-1.024 1.024-1.024 0-2.048 1.024-2.048 1.024s-1.024 0-1.024 0-2.048 0-4.096 0h-98.304c-11.264 0-20.48-9.216-20.48-20.48v-117.76h-141.312c-11.264 0-20.48-9.216-20.48-20.48v-335.872c0-11.264 9.216-20.48 20.48-20.48h252.928c2.048 0 3.072 0 5.12 0 0 0 1.024 0 1.024 0 1.024 0 2.048 0 3.072 1.024 1.024 0 1.024 0 1.024 1.024 1.024 0 2.048 1.024 2.048 1.024s1.024 1.024 1.024 1.024 1.024 1.024 2.048 2.048c0 0 1.024 1.024 1.024 1.024 1.024 1.024 2.048 2.048 2.048 3.072 0 0 0 0 0 0 1.024 1.024 1.024 2.048 2.048 4.096 0 0 0 1.024 0 1.024 0 1.024 1.024 1.024 1.024 2.048 0 0 0 0 0 0s0-1.024 0-1.024 0-1.024 1.024-2.048c0 0 0-1.024 1.024-1.024 0-1.024 1.024-1.024 1.024-2.048 0 0 1.024-1.024 1.024-1.024 0-1.024 1.024-1.024 1.024-2.048 0 0 1.024-1.024 1.024-1.024 1.024 0 1.024-1.024 2.048-1.024 0 0 1.024-1.024 1.024-1.024 1.024 0 1.024-1.024 2.048-1.024 0 0 1.024 0 1.024-1.024 1.024 0 2.048-1.024 2.048-1.024s1.024 0 1.024 0 3.072 0 4.096 0h98.304c1.024 0 3.072 0 4.096 0 0 0 1.024 0 1.024 0 1.024 0 2.048 0 2.048 1.024 0 0 1.024 0 1.024 1.024 1.024 0 1.024 1.024 2.048 1.024 0 0 1.024 1.024 1.024 1.024 1.024 0 1.024 1.024 2.048 1.024 0 0 1.024 1.024 1.024 1.024 1.024 1.024 1.024 1.024 2.048 2.048 0 0 0 1.024 1.024 1.024 1.024 1.024 1.024 2.048 2.048 3.072 0 0 0 0 0 0 0 1.024 1.024 2.048 1.024 3.072 0 0 0 0 0 0 0-2.048 1.024-3.072 2.048-5.12 0 0 0 0 0 0 1.024-1.024 2.048-3.072 3.072-4.096 0 0 0 0 1.024-1.024s2.048-2.048 4.096-3.072c0 0 0 0 1.024 0 1.024-1.024 3.072-2.048 5.12-2.048-6.144-2.048-12.288-6.144-14.336-13.312-1.024-2.048-1.024-4.096-1.024-7.168v-78.848c0-11.264 9.216-20.48 20.48-20.48h256c1.024 0 3.072 0 4.096 0 0 0 1.024 0 1.024 0 1.024 0 2.048 0 2.048 1.024 0 0 1.024 0 1.024 1.024 1.024 0 1.024 1.024 2.048 1.024 0 0 1.024 1.024 1.024 1.024 1.024 0 1.024 1.024 2.048 1.024 0 0 1.024 1.024 1.024 1.024 1.024 1.024 1.024 1.024 1.024 2.048 0 0 1.024 1.024 1.024 1.024 0 1.024 1.024 1.024 1.024 2.048 0 0 0 1.024 1.024 1.024 0 1.024 1.024 2.048 1.024 4.096 0-1.024 1.024-2.048 1.024-4.096 0 0 0-1.024 0-1.024 0-1.024 1.024-2.048 1.024-2.048s1.024-1.024 1.024-1.024c0-1.024 1.024-1.024 1.024-2.048 0 0 1.024-1.024 1.024-1.024 3.072 0 3.072-1.024 4.096-1.024 0 0 1.024-1.024 1.024-1.024 1.024 0 1.024-1.024 2.048-1.024 0 0 1.024 0 1.024-1.024 1.024 0 2.048-1.024 2.048-1.024s1.024 0 1.024 0 2.048 0 4.096 0h256c11.264 0 20.48 9.216 20.48 20.48v453.632c1.024 11.264-8.192 20.48-19.456 20.48zM254.976 254.464h-215.040v294.912h137.216c11.264 0 20.48 9.216 20.48 20.48v117.76h57.344v-433.152zM307.2 588.288c0 0-1.024 0-1.024-1.024-1.024-1.024-2.048-1.024-3.072-2.048 0 0-1.024 0-1.024-1.024-1.024-1.024-2.048-2.048-3.072-4.096 0 0 0 0 0-1.024-1.024-1.024-1.024-2.048-2.048-4.096 0 0 0 0 0-1.024v27.648c0 0 0 0 0-1.024s1.024-3.072 2.048-4.096c0 0 0 0 0-1.024 1.024-1.024 2.048-2.048 3.072-3.072 0 0 1.024-1.024 1.024-1.024 1.024-1.024 2.048-1.024 3.072-2.048 0 0 1.024 0 1.024-1.024 1.024-1.024 3.072-1.024 4.096-2.048 0 0 0 0 0 0s0 0 0 0c-1.024 3.072-3.072 2.048-4.096 2.048zM335.872 687.616h57.344v-57.344h-57.344v57.344zM393.216 255.488h-57.344v293.888h57.344v-293.888zM689.152 136.704h-215.040v37.888h137.216c11.264 0 20.48 9.216 20.48 20.48v39.936c0 11.264-9.216 20.48-20.48 20.48h-137.216v293.888h215.040v-412.672zM740.352 212.48c0 0 0 0 0 0-2.048-1.024-3.072-2.048-4.096-3.072 0 0 0 0 0 0-1.024-1.024-2.048-2.048-3.072-3.072 0 0 0 0 0-1.024-1.024-1.024-1.024-3.072-2.048-4.096 0 0 0 0 0 0v27.648c0 0 0 0 0 0 0-1.024 1.024-3.072 2.048-4.096 0 0 0 0 0-1.024 1.024-1.024 2.048-2.048 3.072-3.072 0 0 0 0 0-1.024 1.024-1.024 2.048-2.048 4.096-3.072 0 0 1.024 0 1.024 0 1.024-1.024 3.072-1.024 4.096-2.048-2.048 0-3.072-1.024-5.12-2.048zM986.112 136.704h-215.040v37.888h137.216c11.264 0 20.48 9.216 20.48 20.48v39.936c0 11.264-9.216 20.48-20.48 20.48h-137.216v293.888h215.040v-412.672zM552.96 292.352h59.392c11.264 0 20.48 9.216 20.48 20.48v178.176c0 11.264-9.216 20.48-20.48 20.48h-59.392c-11.264 0-20.48-9.216-20.48-20.48v-177.152c0-12.288 9.216-21.504 20.48-21.504zM573.44 470.528h18.432v-136.192h-18.432v136.192zM174.080 511.488c-17.408 0-35.84 0-53.248 0-13.312 0-23.552-10.24-23.552-23.552 0-57.344 0-114.688 0-172.032 0-13.312 10.24-23.552 23.552-23.552 17.408 0 35.84 0 53.248 0h3.072c11.264 0 19.456 9.216 20.48 19.456 0 0 0 1.024 0 1.024 0 1.024 0 2.048 0 3.072 0 57.344 0 114.688 0 172.032 0 13.312-9.216 23.552-23.552 23.552zM156.672 333.312c-6.144 0-12.288 0-18.432 0 0 46.080 0 91.136 0 137.216 6.144 0 12.288 0 18.432 0 0-46.080 0-91.136 0-137.216z" />
<glyph unicode="&#xe90f;" glyph-name="down" d="M512 179.712c-5.12 0-10.24 2.048-14.336 6.144l-493.568 495.616c-8.192 8.192-8.192 20.48 0 28.672s20.48 8.192 28.672 0l479.232-481.28 479.232 481.28c8.192 8.192 20.48 8.192 28.672 0s8.192-20.48 0-28.672l-493.568-495.616c-4.096-4.096-9.216-6.144-14.336-6.144z" />
<glyph unicode="&#xe910;" glyph-name="download" d="M498.688 51.712c4.096-4.096 9.216-7.168 15.36-7.168 0 0 0 0 0 0 6.144 0 11.264 3.072 15.36 7.168l200.704 232.448c7.168 8.192 6.144 21.504-2.048 28.672s-21.504 6.144-28.672-2.048l-166.912-192.512v813.056c0 11.264-9.216 20.48-20.48 20.48s-20.48-9.216-20.48-20.48v-809.984l-166.912 190.464c-7.168 8.192-20.48 9.216-28.672 2.048s-9.216-20.48-2.048-28.672l204.8-233.472zM1002.496 266.752c-11.264 0-20.48-9.216-20.48-20.48v-273.408h-940.032v273.408c0 11.264-9.216 20.48-20.48 20.48s-20.48-9.216-20.48-20.48v-293.888c0-11.264 9.216-20.48 20.48-20.48h982.016c11.264 0 20.48 9.216 20.48 20.48v293.888c-1.024 12.288-10.24 20.48-21.504 20.48z" />
<glyph unicode="&#xe911;" glyph-name="email" d="M913.408 776.704c-71.68 105.472-198.656 177.152-321.536 182.272-106.496 5.12-266.24-41.984-386.048-156.672-107.52-103.424-163.84-245.76-162.816-412.672 1.024-211.968 102.4-320.512 188.416-374.784 74.752-47.104 169.984-71.68 265.216-71.68 78.848 0 157.696 16.384 227.328 49.152 10.24 5.12 15.36 17.408 10.24 27.648s-17.408 15.36-27.648 10.24c-115.712-55.296-306.176-71.68-452.608 19.456-110.592 69.632-168.96 187.392-168.96 339.968-1.024 157.696 50.176 285.696 150.528 382.976 109.568 105.472 260.096 148.48 354.304 144.384 110.592-5.12 224.256-69.632 288.768-163.84 46.080-68.608 90.112-183.296 34.816-346.112-39.936-117.76-104.448-174.080-179.2-158.72-56.32 11.264-91.136 54.272-90.112 66.56 6.144 54.272 60.416 348.16 60.416 351.232 2.048 11.264-5.12 22.528-16.384 24.576s-22.528-5.12-24.576-16.384c-1.024-4.096-7.168-36.864-15.36-81.92-5.12 9.216-10.24 18.432-16.384 26.624-23.552 29.696-52.224 47.104-84.992 50.176-130.048 10.24-224.256-96.256-240.64-273.408-5.12-57.344 7.168-103.424 36.864-136.192 24.576-27.648 61.44-43.008 99.328-43.008 30.72 0 106.496 22.528 162.816 87.040 10.24-38.912 62.464-81.92 118.784-94.208 47.104-10.24 162.816-13.312 231.424 185.344 59.392 177.152 10.24 306.176-41.984 381.952zM440.32 256.512c-9.216 0-43.008 2.048-67.584 29.696-21.504 23.552-29.696 58.368-25.6 103.424 14.336 153.6 89.088 243.712 195.584 235.52 20.48-2.048 38.912-13.312 55.296-33.792 26.624-34.816 35.84-81.92 32.768-99.328-5.12-27.648-9.216-54.272-14.336-79.872-35.84-125.952-155.648-155.648-176.128-155.648z" />
<glyph unicode="&#xe912;" glyph-name="embed" d="M56.32 448l315.392 360.448c7.168 8.192 7.168 21.504-2.048 28.672-8.192 7.168-21.504 6.144-28.672-2.048l-326.656-372.736c-6.144-7.168-7.168-18.432 0-26.624l333.824-401.408c4.096-5.12 10.24-7.168 15.36-7.168s9.216 2.048 13.312 5.12c8.192 7.168 10.24 20.48 3.072 28.672l-323.584 387.072zM1010.688 462.336l-326.656 372.736c-7.168 8.192-20.48 9.216-28.672 2.048s-9.216-20.48-2.048-28.672l315.392-360.448-322.56-388.096c-7.168-8.192-6.144-21.504 3.072-28.672 4.096-3.072 8.192-5.12 13.312-5.12 6.144 0 11.264 2.048 15.36 7.168l333.824 401.408c6.144 8.192 6.144 19.456-1.024 27.648zM566.272 929.28c-11.264 1.024-21.504-7.168-22.528-18.432l-80.896-944.128c-1.024-11.264 7.168-21.504 18.432-22.528 1.024 0 1.024 0 2.048 0 10.24 0 19.456 8.192 20.48 18.432l80.896 944.128c2.048 12.288-7.168 21.504-18.432 22.528z" />
<glyph unicode="&#xe913;" glyph-name="facebook" d="M592.896-64h-220.16v458.752h-121.856v210.944h121.856v118.784c0 108.544 67.584 235.52 260.096 235.52 67.584 0 116.736-6.144 118.784-6.144l20.48-3.072-5.12-197.632h-22.528c0 0-50.176 0-105.472 0-40.96 0-46.080-10.24-46.080-50.176v-98.304h180.224l-10.24-210.944h-169.984v-457.728zM417.792-18.944h129.024v459.776h173.056l5.12 119.808h-178.176v143.36c0 47.104 11.264 96.256 92.16 96.256 32.768 0 63.488 0 82.944 0l3.072 110.592c-20.48 2.048-53.248 4.096-93.184 4.096-157.696 0-214.016-98.304-214.016-190.464v-163.84h-121.856v-119.808h121.856v-459.776z" />
<glyph unicode="&#xe914;" glyph-name="FF-left" d="M1012.736 833.024c-7.168 3.072-15.36 3.072-21.504-2.048l-465.92-363.52v347.136c0 8.192-4.096 15.36-11.264 18.432s-15.36 2.048-21.504-2.048l-482.304-375.808c-5.12-4.096-8.192-10.24-8.192-16.384s3.072-12.288 8.192-16.384l481.28-375.808c4.096-3.072 8.192-4.096 12.288-4.096 3.072 0 6.144 1.024 9.216 2.048 7.168 3.072 11.264 10.24 11.264 18.432v348.16l465.92-363.52c4.096-3.072 8.192-4.096 12.288-4.096 3.072 0 6.144 1.024 9.216 2.048 7.168 3.072 11.264 10.24 11.264 18.432v750.592c1.024 8.192-3.072 15.36-10.24 18.432zM484.352 104.96l-428.032 333.824 428.032 333.824v-667.648zM983.040 104.96l-427.008 333.824 427.008 333.824v-667.648z" />
<glyph unicode="&#xe915;" glyph-name="FF-right" d="M12.288 833.024c7.168 3.072 15.36 3.072 21.504-2.048l465.92-363.52v347.136c0 8.192 4.096 15.36 11.264 18.432s15.36 2.048 21.504-2.048l482.304-375.808c5.12-4.096 8.192-10.24 8.192-16.384s-3.072-12.288-8.192-16.384l-481.28-375.808c-4.096-3.072-8.192-4.096-12.288-4.096-3.072 0-6.144 1.024-9.216 2.048-7.168 3.072-11.264 10.24-11.264 18.432v348.16l-465.92-363.52c-4.096-3.072-8.192-4.096-12.288-4.096-3.072 0-6.144 1.024-9.216 2.048-7.168 3.072-11.264 10.24-11.264 18.432v750.592c-1.024 8.192 3.072 15.36 10.24 18.432zM540.672 104.96l428.032 333.824-428.032 333.824v-667.648zM41.984 104.96l427.008 333.824-427.008 333.824v-667.648z" />
<glyph unicode="&#xe916;" glyph-name="flash" d="M172.032-57.856c-5.12 0-10.24 1.024-15.36 2.048-19.456 3.072-33.792 18.432-34.816 38.912v1.024c0 10.24-1.024 20.48-1.024 30.72-1.024 20.48-2.048 41.984-2.048 63.488 0 22.528 1.024 46.080 2.048 68.608 0 11.264 1.024 22.528 1.024 32.768 0 17.408 11.264 32.768 27.648 38.912 10.24 4.096 21.504 6.144 31.744 6.144 48.128 1.024 84.992 21.504 114.688 63.488 18.432 27.648 30.72 60.416 41.984 91.136 15.36 41.984 29.696 86.016 43.008 128 6.144 18.432 12.288 36.864 18.432 56.32 24.576 74.752 49.152 131.072 77.824 181.248 34.816 61.44 73.728 107.52 119.808 140.288 50.176 35.84 104.448 57.344 165.888 67.584 14.336 2.048 28.672 3.072 43.008 4.096 7.168 1.024 14.336 1.024 20.48 2.048h2.048c6.144 0 13.312 0 22.528-4.096 24.576-5.12 34.816-17.408 37.888-43.008v-3.072c1.024-11.264 2.048-21.504 2.048-33.792 0-23.552 0-47.104 0-71.68 0-23.552 0-47.104 0-70.656 0-4.096 0-10.24-1.024-16.384-3.072-23.552-17.408-37.888-40.96-40.96h-1.024c-5.12 0-10.24-1.024-15.36-1.024-9.216 0-18.432-1.024-27.648-2.048-20.48-3.072-36.864-7.168-53.248-12.288-11.264-4.096-22.528-11.264-30.72-21.504-11.264-13.312-20.48-28.672-28.672-47.104 16.384 0 31.744 0 47.104 0 0 0 0 0 0 0 16.384 0 32.768-1.024 49.152-3.072 24.576-3.072 37.888-17.408 39.936-40.96 2.048-20.48 3.072-43.008 3.072-65.536 0-41.984-1.024-86.016-2.048-121.856l-2.048-4.096c0-1.024 0-2.048 0-4.096 0-3.072-1.024-6.144-1.024-9.216-4.096-17.408-15.36-28.672-31.744-31.744-8.192-2.048-18.432-3.072-29.696-3.072-53.248-1.024-108.544-1.024-161.792-1.024-30.72-90.112-75.776-165.888-139.264-231.424-64.512-65.536-133.12-106.496-209.92-122.88-18.432-4.096-37.888-6.144-56.32-8.192-6.144-1.024-12.288-1.024-18.432-2.048-2.048 0-5.12 0-7.168 0zM160.768-14.848c0-3.072 1.024-3.072 3.072-3.072 6.144-1.024 8.192-1.024 8.192-1.024h1.024c6.144 1.024 12.288 1.024 19.456 2.048 17.408 2.048 35.84 4.096 52.224 7.168 68.608 15.36 131.072 52.224 190.464 112.64 60.416 62.464 103.424 134.144 132.096 221.184 4.096 14.336 15.36 21.504 29.696 21.504 55.296 0 111.616 0 166.912 1.024 8.192 0 15.36 1.024 21.504 2.048h2.048c0 0 0 1.024 1.024 2.048 0 2.048 0 3.072 1.024 4.096 0 2.048 1.024 4.096 1.024 6.144 1.024 34.816 2.048 78.848 2.048 118.784 0 21.504-1.024 41.984-3.072 61.44 0 2.048 0 3.072-1.024 4.096-1.024 0-2.048 1.024-5.12 1.024-15.36 2.048-29.696 3.072-45.056 3.072-15.36 1.024-31.744 0-49.152 0-9.216 0-18.432 0-27.648 0h-31.744l14.336 28.672c3.072 6.144 6.144 12.288 9.216 18.432 11.264 23.552 21.504 46.080 38.912 65.536 13.312 16.384 30.72 27.648 49.152 33.792s36.864 10.24 59.392 13.312c11.264 1.024 21.504 2.048 31.744 2.048 4.096 0 9.216 0 13.312 1.024s5.12 1.024 5.12 1.024v0c0 0 1.024 1.024 1.024 6.144v1.024c1.024 3.072 1.024 6.144 1.024 10.24 0 23.552 0 47.104 0 71.68 0 23.552 0 47.104 0 70.656 0 10.24-1.024 19.456-2.048 30.72v2.048c-1.024 6.144-1.024 8.192-1.024 9.216 0 0-2.048 1.024-7.168 1.024h-3.072l-3.072 1.024c-1.024 1.024-2.048 2.048-6.144 2.048-7.168-1.024-13.312-1.024-20.48-2.048-13.312-1.024-27.648-2.048-39.936-4.096-55.296-8.192-104.448-28.672-149.504-60.416-41.984-29.696-76.8-71.68-108.544-128-27.648-48.128-51.2-101.376-74.752-174.080-6.144-18.432-12.288-36.864-18.432-55.296-14.336-41.984-28.672-86.016-43.008-129.024-11.264-33.792-24.576-68.608-46.080-100.352-36.864-52.224-86.016-78.848-146.432-79.872-6.144 0-12.288-1.024-19.456-4.096-2.048-1.024-2.048-1.024-2.048-2.048 0-11.264-1.024-22.528-1.024-33.792-1.024-22.528-2.048-45.056-2.048-67.584 0-20.48 1.024-41.984 2.048-61.44-1.024-10.24 0-20.48 0-31.744z" />
<glyph unicode="&#xe917;" glyph-name="flikr" d="M804.864 228.864c-119.808 0-218.112 97.28-218.112 218.112s97.28 218.112 218.112 218.112 218.112-97.28 218.112-218.112-97.28-218.112-218.112-218.112zM804.864 623.104c-97.28 0-177.152-79.872-177.152-177.152s79.872-177.152 177.152-177.152c97.28 0 177.152 79.872 177.152 177.152 0 98.304-79.872 177.152-177.152 177.152zM217.088 228.864c-119.808 0-217.088 97.28-217.088 217.088s97.28 218.112 218.112 218.112 218.112-97.28 218.112-218.112-98.304-217.088-219.136-217.088zM217.088 623.104c-97.28 0-176.128-78.848-176.128-177.152 0-97.28 79.872-177.152 177.152-177.152s177.152 79.872 177.152 177.152c-1.024 98.304-79.872 177.152-178.176 177.152z" />
<glyph unicode="&#xe918;" glyph-name="fullscreen" d="M368.64 954.88h-342.016c-11.264 0-20.48-9.216-20.48-20.48v-333.824c0-11.264 9.216-20.48 20.48-20.48s20.48 9.216 20.48 20.48v313.344h321.536c11.264 0 20.48 9.216 20.48 20.48s-9.216 20.48-20.48 20.48zM997.376 954.88h-342.016c-11.264 0-20.48-9.216-20.48-20.48s9.216-20.48 20.48-20.48h322.56v-313.344c0-11.264 9.216-20.48 20.48-20.48s20.48 9.216 20.48 20.48v333.824c-1.024 11.264-9.216 20.48-21.504 20.48zM368.64-17.92h-321.536v313.344c0 11.264-9.216 20.48-20.48 20.48s-20.48-9.216-20.48-20.48v-333.824c0-11.264 9.216-20.48 20.48-20.48h342.016c11.264 0 20.48 9.216 20.48 20.48s-9.216 20.48-20.48 20.48zM997.376 315.904c-11.264 0-20.48-9.216-20.48-20.48v-313.344h-321.536c-11.264 0-20.48-9.216-20.48-20.48s9.216-20.48 20.48-20.48h343.040c11.264 0 20.48 9.216 20.48 20.48v333.824c-1.024 11.264-9.216 20.48-21.504 20.48z" />
<glyph unicode="&#xe919;" glyph-name="full-width" d="M22.528 863.744c-11.264 0-20.48-9.216-20.48-20.48v-817.152c0-11.264 9.216-20.48 20.48-20.48s20.48 9.216 20.48 20.48v817.152c0 11.264-9.216 20.48-20.48 20.48zM1001.472 863.744c-11.264 0-20.48-9.216-20.48-20.48v-817.152c0-11.264 9.216-20.48 20.48-20.48s20.48 9.216 20.48 20.48v817.152c0 11.264-9.216 20.48-20.48 20.48zM969.728 455.168l-181.248 208.896c-7.168 8.192-20.48 9.216-28.672 2.048s-9.216-20.48-2.048-28.672l154.624-179.2h-802.816l154.624 178.176c7.168 8.192 6.144 21.504-2.048 28.672s-21.504 6.144-28.672-2.048l-185.344-212.992c-7.168-8.192-7.168-19.456 0-26.624l185.344-210.944c4.096-5.12 9.216-7.168 15.36-7.168 5.12 0 9.216 2.048 13.312 5.12 8.192 7.168 9.216 20.48 2.048 28.672l-156.672 178.176h806.912l-156.672-178.176c-7.168-8.192-6.144-21.504 2.048-28.672 4.096-3.072 8.192-5.12 13.312-5.12 6.144 0 11.264 2.048 15.36 7.168l185.344 210.944c3.072 4.096 5.12 9.216 5.12 14.336 0 0 0 0 0 1.024 0 6.144-3.072 12.288-9.216 16.384z" />
<glyph unicode="&#xe91a;" glyph-name="gallery" d="M1019.904 843.264c1.024 9.216-3.072 18.432-9.216 25.6-8.192 8.192-17.408 12.288-27.648 12.288h-806.912c-20.48 0-36.864-17.408-36.864-36.864v-29.696h-30.72c-20.48 0-36.864-17.408-36.864-36.864v-29.696h-30.72c-20.48 0-36.864-17.408-36.864-36.864v-656.384c0-20.48 17.408-36.864 36.864-36.864h807.936c20.48 0 36.864 17.408 36.864 36.864v29.696h30.72c20.48 0 36.864 17.408 36.864 36.864v29.696h29.696c20.48 0 36.864 17.408 36.864 36.864v655.36zM916.48 813.568h-737.28v25.6h799.744v-647.168h-25.6v583.68c0 20.48-16.384 37.888-36.864 37.888zM848.896 745.984h-737.28v25.6h799.744v-647.168h-25.6v583.68c0 20.48-16.384 37.888-36.864 37.888zM844.8 343.552l-80.896 93.184c-4.096 4.096-9.216 6.144-15.36 6.144 0 0 0 0 0 0-6.144 0-12.288-2.048-15.36-6.144l-105.472-119.808-286.72 256c-4.096 4.096-8.192 6.144-13.312 6.144s-10.24-2.048-13.312-5.12l-270.336-239.616v370.688h799.744v-361.472zM45.056 279.040l282.624 250.88 288.768-257.024c5.12-5.12 12.288-5.12 14.336-5.12 6.144 0 11.264 3.072 15.36 7.168l102.4 116.736 97.28-110.592v-225.28h-800.768v223.232zM614.4 609.792c-37.888 0-68.608-30.72-68.608-68.608s30.72-68.608 68.608-68.608 68.608 30.72 68.608 68.608-30.72 68.608-68.608 68.608zM614.4 507.392c-18.432 0-33.792 15.36-33.792 33.792s15.36 33.792 33.792 33.792 33.792-15.36 33.792-33.792-14.336-33.792-33.792-33.792z" />
<glyph unicode="&#xe91b;" glyph-name="gallery-fullscreen" d="M343.040 308.736l-296.96-297.984v128h-41.984v-180.224l19.456-19.456h180.224v43.008h-129.024l297.984 296.96zM679.936 586.24l297.984 299.008v-128h41.984v179.2l-19.456 19.456h-179.2v-41.984h128l-299.008-297.984z" />
<glyph unicode="&#xe91c;" glyph-name="gallery-minimise" d="M33.792-60.928l296.96 297.984v-128h41.984v180.224l-19.456 19.456h-180.224v-43.008h129.024l-297.984-296.96zM990.208 955.904l-297.984-299.008v128h-41.984v-179.2l19.456-19.456h179.2v41.984h-128l299.008 297.984z" />
<glyph unicode="&#xe91d;" glyph-name="ghost" d="M346.24 259.84c-8.32 0-14.72-6.4-14.72-14.72s6.4-14.72 14.72-14.72h26.24c8.32 0 14.72 6.4 14.72 14.72s-6.4 14.72-14.72 14.72h-26.24zM493.44 259.84h-51.2c-8.32 0-14.72-6.4-14.72-14.72s6.4-14.72 14.72-14.72h51.2c44.8 0 81.28 36.48 81.28 81.28s-36.48 81.28-81.28 81.28h-147.2c-8.32 0-14.72-6.4-14.72-14.72s6.4-14.72 14.72-14.72h147.2c28.16 0 51.2-23.040 51.2-51.2s-23.040-52.48-51.2-52.48zM467.84 602.24v28.16c0 8.32-6.4 14.72-14.72 14.72s-14.72-6.4-14.72-14.72v-28.16c0-8.32 6.4-14.72 14.72-14.72s14.72 6.4 14.72 14.72zM650.88 630.4v-28.16c0-8.32 6.4-14.72 14.72-14.72s14.72 6.4 14.72 14.72v28.16c0 8.32-6.4 14.72-14.72 14.72-7.68 0-14.72-6.4-14.72-14.72zM599.040 529.92c-5.76 5.76-15.36 6.4-21.12 0.64-7.68-7.68-24.32-7.68-32 0-5.76 5.76-15.36 5.76-21.12-0.64-5.76-5.76-5.76-15.36 0.64-21.12 9.6-9.6 23.68-14.080 37.12-14.080s26.88 4.48 37.12 14.080c5.12 5.76 5.12 15.36-0.64 21.12zM869.76 392.32h-51.2v238.080c0 39.040-7.040 77.44-20.48 113.92-2.56 7.68-11.52 11.52-19.2 8.96s-11.52-11.52-8.96-19.2c12.16-33.28 18.56-67.84 18.56-103.68v-413.44c0-138.24-112.64-250.88-250.88-250.88h-278.4c-0.64 0-0.64 0-1.28 0h-108.8c-18.56 0-34.56 10.24-42.24 26.88s-5.76 35.2 5.76 49.92c49.28 60.8 76.16 137.6 76.16 216.32v371.2c0 165.12 134.4 299.52 299.52 299.52 101.76 0 195.84-51.2 251.52-136.32 4.48-7.040 14.080-8.96 20.48-4.48 7.040 4.48 8.96 14.080 4.48 20.48-60.8 94.080-164.48 150.4-276.48 150.4-181.76 0-329.6-147.84-329.6-329.6v-371.84c0-71.68-24.96-141.44-69.76-197.12-18.56-23.040-22.4-54.4-9.6-81.28s39.68-43.52 69.12-43.52h110.080c0.64 0 0.64 0 1.28 0h277.76c154.88 0 280.96 126.080 280.96 280.96v12.8h51.2c44.8 0 81.28 36.48 81.28 81.28 0 44.16-36.48 80.64-81.28 80.64zM869.76 259.84h-51.2v102.4h51.2c28.16 0 51.2-23.040 51.2-51.2 0-28.8-23.040-51.2-51.2-51.2z" />
<glyph unicode="&#xe91e;" glyph-name="google-plus" d="M980.992 819.712h-83.968v128h-149.504v-126.976h-126.976v-58.368c-4.096 18.432-11.264 35.84-19.456 51.2l9.216 10.24 61.44 64.512 68.608 71.68h-376.832c-162.816 0-301.056-118.784-301.056-260.096 0-138.24 89.088-237.568 221.184-250.88 0-4.096 0-7.168 0-11.264 0-11.264 1.024-21.504 4.096-30.72-173.056-12.288-287.744-139.264-287.744-258.048 0-125.952 140.288-212.992 339.968-212.992 211.968 0 338.944 128 338.944 251.904 0 102.4-28.672 155.648-124.928 227.328l-6.144 4.096c-12.288 9.216-49.152 36.864-58.368 51.2 0 10.24 5.12 17.408 38.912 44.032 56.32 44.032 89.088 97.28 96.256 155.648h120.832v-126.976h149.504v126.976h126.976v149.504h-40.96zM501.76 548.352c-47.104-36.864-55.296-51.2-55.296-82.944 0-26.624 55.296-65.536 80.896-84.992 90.112-67.584 107.52-109.568 107.52-192.512 0-104.448-112.64-207.872-295.936-207.872-160.768 0-295.936 65.536-295.936 169.984 0 106.496 112.64 217.088 273.408 217.088 17.408 0 33.792 0 50.176 0-21.504 21.504-39.936 39.936-39.936 71.68 0 19.456 6.144 37.888 14.336 54.272-9.216-1.024-17.408-1.024-26.624-1.024-132.096 0-208.896 93.184-208.896 208.896 0 113.664 116.736 217.088 257.024 217.088 72.704 0 276.48 0 276.48 0l-61.44-64.512h-72.704c51.2-29.696 78.848-90.112 78.848-156.672 0-62.464-33.792-111.616-81.92-148.48zM980.992 713.216h-128v-128h-63.488v128h-128v63.488h128v126.976h63.488v-128h128c0 0 0-62.464 0-62.464zM321.536 871.936c-1.024 0-2.048 0-3.072 0-72.704 0-120.832-73.728-108.544-171.008 13.312-98.304 83.968-165.888 157.696-167.936 1.024 0 2.048 0 4.096 0 71.68 0 113.664 62.464 100.352 158.72-12.288 97.28-75.776 178.176-150.528 180.224zM412.672 592.384c-10.24-11.264-23.552-16.384-40.96-16.384h-2.048c-57.344 2.048-107.52 58.368-116.736 131.072-5.12 40.96 3.072 79.872 22.528 102.4 11.264 13.312 25.6 20.48 43.008 20.48h2.048c50.176-1.024 99.328-65.536 109.568-143.36 5.12-40.96-1.024-75.776-17.408-94.208zM353.28 332.288c-1.024 0-2.048 0-3.072 0-109.568 0-201.728-70.656-201.728-152.576 0-83.968 79.872-154.624 191.488-154.624 155.648 0 210.944 65.536 210.944 150.528 0 10.24-1.024 20.48-3.072 29.696-12.288 48.128-60.416 73.728-120.832 115.712-24.576 7.168-48.128 11.264-73.728 11.264zM503.808 195.072c1.024-6.144 2.048-12.288 2.048-19.456 0-26.624 0-107.52-166.912-107.52-82.944 0-148.48 49.152-148.48 111.616 0 57.344 75.776 109.568 158.72 109.568h2.048c18.432 0 36.864-3.072 53.248-7.168 7.168-5.12 13.312-9.216 20.48-13.312 47.104-31.744 72.704-50.176 78.848-73.728z" />
<glyph unicode="&#xe91f;" glyph-name="info" d="M656.384 458.24c11.264 0 20.48 9.216 20.48 20.48v122.88c0 11.264-9.216 20.48-20.48 20.48h-288.768c-11.264 0-20.48-9.216-20.48-20.48v-122.88c0-11.264 9.216-20.48 20.48-20.48h65.536v-351.232h-65.536c-11.264 0-20.48-9.216-20.48-20.48v-122.88c0-11.264 9.216-20.48 20.48-20.48h288.768c11.264 0 20.48 9.216 20.48 20.48v122.88c0 11.264-9.216 20.48-20.48 20.48h-60.416v351.232h60.416zM576.512 66.048h60.416v-81.92h-248.832v81.92h65.536c11.264 0 20.48 9.216 20.48 20.48v392.192c0 11.264-9.216 20.48-20.48 20.48h-65.536v81.92h247.808v-81.92h-60.416c-11.264 0-20.48-9.216-20.48-20.48v-392.192c1.024-11.264 10.24-20.48 21.504-20.48zM512 664.064c79.872 0 144.384 64.512 144.384 144.384s-64.512 144.384-144.384 144.384-144.384-64.512-144.384-144.384 64.512-144.384 144.384-144.384zM512 911.872c57.344 0 103.424-46.080 103.424-103.424s-46.080-103.424-103.424-103.424c-57.344 0-103.424 46.080-103.424 103.424s46.080 103.424 103.424 103.424z" />
<glyph unicode="&#xe920;" glyph-name="info-off" d="M512 664.064c79.872 0 144.384 64.512 144.384 144.384s-64.512 144.384-144.384 144.384-144.384-64.512-144.384-144.384 64.512-144.384 144.384-144.384zM512 911.872c57.344 0 103.424-46.080 103.424-103.424s-46.080-103.424-103.424-103.424-103.424 46.080-103.424 103.424 46.080 103.424 103.424 103.424zM828.416 97.792l-232.448 161.792v198.656h60.416c11.264 0 20.48 9.216 20.48 20.48v122.88c0 11.264-9.216 20.48-20.48 20.48h-288.768c-11.264 0-20.48-9.216-20.48-20.48v-122.88c0-11.264 9.216-20.48 20.48-20.48h65.536v-86.016l-223.232 155.648c-9.216 6.144-22.528 4.096-28.672-5.12s-4.096-22.528 5.12-28.672l246.784-171.008v-215.040h-65.536c-11.264 0-20.48-9.216-20.48-20.48v-122.88c0-11.264 9.216-20.48 20.48-20.48h288.768c11.264 0 20.48 9.216 20.48 20.48v122.88c0 11.264-9.216 20.48-20.48 20.48h-60.416v102.4l209.92-145.408c3.072-2.048 7.168-4.096 11.264-4.096 6.144 0 13.312 3.072 16.384 9.216 7.168 8.192 4.096 20.48-5.12 27.648zM453.632 499.2h-65.536v81.92h247.808v-81.92h-60.416c-11.264 0-20.48-9.216-20.48-20.48v-191.488l-80.896 56.32v135.168c0 11.264-9.216 20.48-20.48 20.48zM576.512 66.048h60.416v-81.92h-248.832v81.92h65.536c11.264 0 20.48 9.216 20.48 20.48v207.872l80.896-56.32v-151.552c1.024-11.264 10.24-20.48 21.504-20.48z" />
<glyph unicode="&#xe921;" glyph-name="instagram" d="M302.080 960c-165.888 0-302.080-136.192-302.080-302.080v-418.816c0-166.912 136.192-303.104 302.080-303.104h418.816c166.912 0 302.080 136.192 302.080 302.080v419.84c1.024 165.888-135.168 302.080-301.056 302.080h-419.84zM302.080 913.92h418.816c141.312 0 256-114.688 256-256v-418.816c0-141.312-114.688-256-256-256h-418.816c-141.312 0-256 114.688-256 256v418.816c0 141.312 114.688 256 256 256zM791.552 773.632c-12.288 0-24.576-5.12-32.768-13.312-9.216-9.216-13.312-20.48-13.312-32.768s5.12-24.576 13.312-32.768c9.216-9.216 20.48-13.312 32.768-13.312s24.576 5.12 32.768 13.312c9.216 9.216 13.312 20.48 13.312 32.768s-5.12 24.576-13.312 32.768c-9.216 8.192-20.48 13.312-32.768 13.312zM512 704c-141.312 0-256-114.688-256-256s114.688-256 256-256 256 114.688 256 256-114.688 256-256 256zM512 657.92c115.712 0 209.92-93.184 209.92-209.92s-94.208-209.92-209.92-209.92-209.92 94.208-209.92 209.92 94.208 209.92 209.92 209.92z" />
<glyph unicode="&#xe922;" glyph-name="left" d="M243.712 448c0 5.12 2.048 10.24 6.144 14.336l495.616 493.568c8.192 8.192 20.48 8.192 28.672 0s8.192-20.48 0-28.672l-481.28-479.232 481.28-479.232c8.192-8.192 8.192-20.48 0-28.672s-20.48-8.192-28.672 0l-495.616 493.568c-4.096 4.096-6.144 9.216-6.144 14.336z" />
<glyph unicode="&#xe923;" glyph-name="left-arrow" d="M999.424 468.48h-926.72l352.256 352.256c4.096 4.096 6.144 9.216 6.144 14.336s-2.048 11.264-6.144 14.336c-8.192 8.192-21.504 8.192-29.696 0l-385.024-387.072c0 0 0 0 0 0-4.096-4.096-6.144-9.216-6.144-14.336 0-1.024 0-2.048 0-3.072s0-2.048 1.024-3.072c0 0 0 0 0-1.024s1.024-1.024 1.024-2.048c1.024-2.048 2.048-4.096 3.072-6.144l387.072-387.072c4.096-3.072 9.216-5.12 14.336-5.12 6.144 0 11.264 2.048 14.336 5.12 4.096 4.096 6.144 9.216 6.144 14.336s-2.048 11.264-6.144 14.336l-352.256 353.28h926.72c11.264 0 20.48 9.216 20.48 20.48s-9.216 20.48-20.48 20.48z" />
<glyph unicode="&#xe924;" glyph-name="link" d="M961.536 897.536c-82.944 82.944-218.112 82.944-301.056 0l-160.768-160.768c-61.44-61.44-77.824-152.576-47.104-228.352-24.576 9.216-51.2 14.336-77.824 14.336-57.344 0-110.592-22.528-150.528-62.464l-161.792-160.768c-82.944-82.944-82.944-218.112 0-301.056 41.984-41.984 96.256-62.464 150.528-62.464s109.568 20.48 150.528 62.464l160.768 160.768c61.44 61.44 77.824 152.576 47.104 228.352 24.576-9.216 51.2-14.336 77.824-14.336 57.344 0 110.592 22.528 150.528 62.464l160.768 160.768c83.968 82.944 83.968 218.112 1.024 301.056zM499.712 184.832l-161.792-161.792c-69.632-69.632-182.272-69.632-250.88 0-69.632 69.632-69.632 182.272 0 250.88l160.768 160.768c33.792 33.792 77.824 52.224 125.952 52.224 41.984 0 80.896-14.336 112.64-39.936l-152.576-152.576c-7.168-7.168-7.168-18.432 0-25.6 3.072-3.072 8.192-5.12 12.288-5.12s9.216 2.048 12.288 5.12l152.576 152.576c57.344-68.608 53.248-172.032-11.264-236.544zM936.96 622.080l-161.792-161.792c-33.792-33.792-77.824-52.224-125.952-52.224-41.984 0-80.896 14.336-112.64 39.936l153.6 153.6c7.168 7.168 7.168 18.432 0 25.6s-18.432 7.168-25.6 0l-151.552-153.6c-57.344 69.632-53.248 173.056 12.288 237.568l160.768 161.792c34.816 34.816 79.872 52.224 125.952 52.224 45.056 0 91.136-17.408 125.952-52.224 67.584-69.632 67.584-182.272-1.024-250.88z" />
<glyph unicode="&#xe925;" glyph-name="linkedin" d="M264.192-62.976h-247.808v697.344h248.832v-697.344zM61.44-16.896h157.696v606.208h-157.696v-606.208zM140.288 678.4c-76.8 0-140.288 62.464-140.288 140.288 0 76.8 63.488 140.288 140.288 140.288 77.824 0 140.288-62.464 140.288-140.288s-62.464-140.288-140.288-140.288zM140.288 912.896c-52.224 0-95.232-41.984-95.232-94.208s43.008-94.208 95.232-94.208c52.224 0 95.232 41.984 95.232 94.208s-43.008 94.208-95.232 94.208zM1024-62.976h-247.808v339.968c0 101.376-12.288 150.528-82.944 150.528s-98.304-40.96-98.304-144.384v-345.088h-248.832v696.32h239.616v-49.152c37.888 35.84 96.256 65.536 172.032 65.536 234.496 0 266.24-168.96 266.24-333.824v-379.904zM821.248-16.896h156.672v334.848c0 178.176-36.864 287.744-220.16 287.744-90.112 0-149.504-50.176-172.032-93.184l-6.144-12.288h-38.912v89.088h-148.48v-606.208h156.672v299.008c0 52.224 0 190.464 144.384 190.464 128 0 128-126.976 128-195.584v-293.888z" />
<glyph unicode="&#xe926;" glyph-name="loop" d="M25.6 468.48c0-11.264 9.216-20.48 20.48-20.48s20.48 9.216 20.48 20.48v125.952c0 1.024 0 1.024 0 2.048 0 0-4.096 50.176 25.6 81.92 18.432 19.456 46.080 29.696 82.944 29.696h746.496l-161.792-162.816c-8.192-8.192-8.192-20.48 0-28.672 4.096-4.096 9.216-6.144 14.336-6.144s10.24 2.048 14.336 6.144l196.608 197.632c8.192 8.192 8.192 20.48 0 28.672l-196.608 206.848c-8.192 8.192-20.48 8.192-28.672 1.024-8.192-8.192-8.192-20.48-1.024-28.672l163.84-172.032h-747.52c-49.152 0-87.040-14.336-113.664-44.032-38.912-43.008-36.864-103.424-35.84-112.64v-124.928zM991.232 303.616v124.928c0 11.264-9.216 20.48-20.48 20.48s-20.48-9.216-20.48-20.48v-125.952c0-1.024 0-1.024 0-2.048 0 0 4.096-50.176-25.6-81.92-18.432-19.456-46.080-29.696-82.944-29.696h-746.496l161.792 162.816c8.192 8.192 8.192 20.48 0 28.672s-20.48 8.192-28.672 0l-196.608-197.632c-8.192-8.192-8.192-20.48 0-28.672l196.608-206.848c4.096-4.096 9.216-6.144 14.336-6.144s10.24 2.048 14.336 6.144c8.192 8.192 8.192 20.48 1.024 28.672l-163.84 172.032h747.52c49.152 0 87.040 14.336 113.664 44.032 38.912 43.008 35.84 102.4 35.84 111.616z" />
<glyph unicode="&#xe927;" glyph-name="love" d="M1021.952 613.888c0 151.552-122.88 275.456-275.456 275.456-99.328 0-186.368-52.224-234.496-131.072-48.128 78.848-135.168 131.072-234.496 131.072-151.552 0-275.456-122.88-275.456-275.456 0-82.944 36.864-156.672 94.208-206.848l390.144-390.144c7.168-7.168 15.36-10.24 25.6-10.24 9.216 0 18.432 4.096 25.6 10.24l389.12 390.144c58.368 50.176 95.232 124.928 95.232 206.848z" />
<glyph unicode="&#xe928;" glyph-name="mail" d="M933.888 820.736h-843.776c-47.104 0-86.016-38.912-86.016-86.016v-552.96c0-47.104 38.912-86.016 86.016-86.016h843.776c47.104 0 86.016 38.912 86.016 86.016v552.96c0 47.104-38.912 86.016-86.016 86.016zM977.92 734.72v-552.96c0-23.552-19.456-44.032-44.032-44.032h-843.776c-23.552 0-44.032 19.456-44.032 44.032v552.96c0 3.072 0 7.168 1.024 10.24l324.608-282.624-177.152-166.912c-4.096-4.096-6.144-9.216-7.168-14.336 0-6.144 2.048-11.264 6.144-15.36s9.216-7.168 15.36-7.168c5.12 0 10.24 2.048 14.336 6.144l181.248 169.984 45.056-38.912c16.384-14.336 38.912-22.528 62.464-22.528s46.080 8.192 62.464 22.528l50.176 41.984 184.32-174.080c4.096-4.096 9.216-6.144 14.336-6.144 6.144 0 11.264 2.048 15.36 7.168 4.096 4.096 6.144 9.216 6.144 15.36s-2.048 11.264-7.168 14.336l-181.248 171.008 319.488 278.528c1.024-3.072 2.048-6.144 2.048-9.216zM546.816 426.496c-18.432-16.384-51.2-16.384-69.632 0l-400.384 349.184c4.096 1.024 9.216 2.048 13.312 2.048h843.776c5.12 0 9.216-1.024 13.312-2.048l-400.384-349.184z" />
<glyph unicode="&#xe929;" glyph-name="maps" d="M513.024-64h-2.048c-34.816 0-59.392 28.672-62.464 31.744-150.528 180.224-311.296 390.144-311.296 603.136 0 215.040 167.936 389.12 374.784 389.12s374.784-174.080 374.784-389.12c0-212.992-160.768-422.912-311.296-603.136 0 0 0 0 0 0s-26.624-31.744-62.464-31.744zM512 920.064c-184.32 0-334.848-156.672-334.848-349.184 0-199.68 155.648-402.432 302.080-577.536 4.096-5.12 18.432-17.408 31.744-17.408h2.048c13.312 0 27.648 13.312 31.744 17.408 146.432 175.104 302.080 377.856 302.080 577.536 0 192.512-150.528 349.184-334.848 349.184zM512 347.648c-134.144 0-243.712 109.568-243.712 243.712s109.568 242.688 243.712 242.688c134.144 0 243.712-109.568 243.712-243.712s-109.568-242.688-243.712-242.688zM512 795.136c-112.64 0-203.776-91.136-203.776-203.776s91.136-203.776 203.776-203.776c112.64 0 203.776 91.136 203.776 203.776s-91.136 203.776-203.776 203.776z" />
<glyph unicode="&#xe92a;" glyph-name="maximise" d="M375.808 333.312c0-11.264 8.192-19.456 19.456-19.456s19.456 8.192 19.456 19.456v209.92h209.92c9.216 0 18.432 9.216 18.432 19.456 0 11.264-8.192 19.456-19.456 19.456h-208.896v211.968c0 11.264-8.192 19.456-19.456 19.456s-19.456-8.192-19.456-19.456v-209.92h-209.92c-11.264 0-19.456-8.192-19.456-19.456s8.192-19.456 19.456-19.456h209.92v-211.968zM1014.784 27.136l-307.2 307.2c49.152 65.536 75.776 146.432 75.776 230.4 0 214.016-174.080 388.096-388.096 388.096s-389.12-174.080-389.12-388.096 174.080-388.096 388.096-388.096c84.992 0 165.888 26.624 233.472 77.824l306.176-306.176c4.096-4.096 9.216-6.144 14.336-6.144s10.24 2.048 14.336 6.144l52.224 52.224c4.096 4.096 6.144 8.192 6.144 14.336-1.024 6.144-4.096 10.24-6.144 12.288zM684.032 301.568l288.768-288.768-23.552-23.552-288.768 288.768 23.552 23.552zM394.24 911.872c191.488 0 348.16-156.672 348.16-348.16 0-92.16-35.84-179.2-101.376-244.736-65.536-66.56-153.6-103.424-246.784-103.424-191.488 0-348.16 156.672-348.16 348.16s156.672 348.16 348.16 348.16z" />
<glyph unicode="&#xe92b;" glyph-name="minimise" d="M645.12 563.712c0 11.264-8.192 19.456-19.456 19.456h-460.8c-11.264 0-19.456-8.192-19.456-19.456s8.192-19.456 19.456-19.456h460.8c10.24-1.024 19.456 9.216 19.456 19.456zM1015.808 26.112l-308.224 308.224c49.152 65.536 75.776 147.456 75.776 230.4 0 214.016-174.080 389.12-389.12 389.12s-389.12-174.080-389.12-389.12 174.080-389.12 389.12-389.12c84.992 0 165.888 26.624 234.496 78.848l307.2-307.2c4.096-4.096 9.216-6.144 14.336-6.144s10.24 2.048 14.336 6.144l52.224 52.224c4.096 4.096 6.144 8.192 6.144 14.336-1.024 6.144-5.12 10.24-7.168 12.288zM684.032 301.568l288.768-288.768-23.552-23.552-288.768 287.744 23.552 24.576zM394.24 912.896c192.512 0 349.184-156.672 349.184-349.184s-156.672-349.184-349.184-349.184-349.184 156.672-349.184 349.184 156.672 349.184 349.184 349.184z" />
<glyph unicode="&#xe92c;" glyph-name="minus" d="M1005.568 463.36h-987.136c-8.192 0-15.36-7.168-15.36-15.36s7.168-15.36 15.36-15.36h987.136c8.192 0 15.36 7.168 15.36 15.36s-7.168 15.36-15.36 15.36z" />
<glyph unicode="&#xe92d;" glyph-name="min-width" d="M999.424 458.24h-197.632l154.624 178.176c7.168 8.192 6.144 21.504-2.048 28.672s-21.504 6.144-28.672-2.048l-178.176-204.8v385.024c0 11.264-9.216 20.48-20.48 20.48s-20.48-9.216-20.48-20.48v-385.024h-345.088v385.024c0 11.264-9.216 20.48-20.48 20.48s-20.48-9.216-20.48-20.48v-385.024l-178.176 204.8c-7.168 8.192-20.48 9.216-28.672 2.048s-9.216-20.48-2.048-28.672l154.624-178.176h-237.568c-11.264 0-20.48-9.216-20.48-20.48s9.216-20.48 20.48-20.48h239.616l-156.672-178.176c-7.168-8.192-6.144-21.504 2.048-28.672 4.096-3.072 9.216-5.12 13.312-5.12 6.144 0 11.264 2.048 15.36 7.168l178.176 202.752v-388.096c0-11.264 9.216-20.48 20.48-20.48s20.48 9.216 20.48 20.48v390.144h345.088v-391.168c0-11.264 9.216-20.48 20.48-20.48s20.48 9.216 20.48 20.48v388.096l178.176-202.752c4.096-5.12 9.216-7.168 15.36-7.168 5.12 0 9.216 2.048 13.312 5.12 8.192 7.168 9.216 20.48 2.048 28.672l-156.672 179.2h199.68c11.264 0 20.48 9.216 20.48 20.48s-9.216 20.48-20.48 20.48z" />
<glyph unicode="&#xe92e;" glyph-name="music" d="M975.872 950.784c-3.072 4.096-10.24 5.12-15.36 5.12 0 0 0 0 0 0l-571.392-73.728c-10.24-1.024-17.408-9.216-17.408-19.456v-653.312c-34.816 40.96-89.088 64.512-145.408 64.512-102.4 0-185.344-74.752-185.344-167.936 0-92.16 82.944-166.912 185.344-166.912s185.344 74.752 185.344 167.936c0 4.096 0 8.192-1.024 12.288 0 0 0 1.024 0 1.024 0 1.024 1.024 1.024 1.024 2.048v534.528l531.456 68.608v-331.776c-34.816 40.96-89.088 64.512-145.408 64.512-102.4 0-185.344-74.752-185.344-167.936 0-92.16 82.944-167.936 185.344-167.936 100.352 0 183.296 73.728 185.344 164.864v649.216c0 5.12-2.048 10.24-7.168 14.336zM943.104 913.92v-149.504l-531.456-67.584v148.48l531.456 68.608zM371.712 105.984c0-70.656-65.536-126.976-145.408-126.976s-145.408 57.344-145.408 126.976 65.536 126.976 145.408 126.976 145.408-56.32 145.408-126.976zM943.104 291.328c0-70.656-65.536-126.976-145.408-126.976s-145.408 57.344-145.408 126.976 65.536 126.976 145.408 126.976 145.408-57.344 145.408-126.976z" />
<glyph unicode="&#xe92f;" glyph-name="normalscreen" d="M1005.568 314.88h-343.040c-11.264 0-20.48-9.216-20.48-20.48v-333.824c0-11.264 9.216-20.48 20.48-20.48s20.48 9.216 20.48 20.48v313.344h322.56c11.264 0 20.48 9.216 20.48 20.48s-9.216 20.48-20.48 20.48zM361.472 314.88h-343.040c-11.264 0-20.48-9.216-20.48-20.48s9.216-20.48 20.48-20.48h322.56v-313.344c0-11.264 9.216-20.48 20.48-20.48s20.48 9.216 20.48 20.48v333.824c0 11.264-9.216 20.48-20.48 20.48zM662.528 581.12h343.040c11.264 0 20.48 9.216 20.48 20.48s-9.216 20.48-20.48 20.48h-322.56v313.344c0 11.264-9.216 20.48-20.48 20.48s-20.48-9.216-20.48-20.48v-333.824c0-11.264 9.216-20.48 20.48-20.48zM361.472 955.904c-11.264 0-20.48-9.216-20.48-20.48v-313.344h-322.56c-11.264 0-20.48-9.216-20.48-20.48s9.216-20.48 20.48-20.48h343.040c11.264 0 20.48 9.216 20.48 20.48v333.824c0 11.264-9.216 20.48-20.48 20.48z" />
<glyph unicode="&#xe930;" glyph-name="pause" d="M450.56 943.616h-122.88c-11.264 0-20.48-9.216-20.48-20.48v-960.512c0-11.264 9.216-20.48 20.48-20.48h122.88c11.264 0 20.48 9.216 20.48 20.48v960.512c0 12.288-9.216 20.48-20.48 20.48zM430.080-15.872h-81.92v918.528h81.92v-918.528zM696.32 943.616h-122.88c-11.264 0-20.48-9.216-20.48-20.48v-960.512c0-11.264 9.216-20.48 20.48-20.48h122.88c11.264 0 20.48 9.216 20.48 20.48v960.512c0 12.288-9.216 20.48-20.48 20.48zM675.84-15.872h-81.92v918.528h81.92v-918.528z" />
<glyph unicode="&#xe931;" glyph-name="phone" d="M664.576 955.904h-305.152c-91.136 0-165.888-74.752-165.888-165.888v-684.032c0-91.136 74.752-165.888 165.888-165.888h305.152c91.136 0 165.888 74.752 165.888 165.888v684.032c0 91.136-74.752 165.888-165.888 165.888zM359.424 914.944h305.152c68.608 0 124.928-56.32 124.928-124.928v-528.384h-555.008v528.384c0 68.608 56.32 124.928 124.928 124.928zM664.576-18.944h-305.152c-68.608 0-124.928 56.32-124.928 124.928v114.688h553.984v-114.688c1.024-68.608-55.296-124.928-123.904-124.928zM519.168 182.784c-50.176 0-91.136-40.96-91.136-91.136s40.96-91.136 91.136-91.136c50.176 0 91.136 40.96 91.136 91.136s-41.984 91.136-91.136 91.136zM519.168 41.472c-27.648 0-50.176 22.528-50.176 50.176s22.528 50.176 50.176 50.176 50.176-22.528 50.176-50.176c-1.024-27.648-23.552-50.176-50.176-50.176zM396.288 800.256h244.736c11.264 0 20.48 9.216 20.48 20.48s-9.216 20.48-20.48 20.48h-244.736c-11.264 0-20.48-9.216-20.48-20.48s9.216-20.48 20.48-20.48z" />
<glyph unicode="&#xe932;" glyph-name="photo" d="M942.080 695.808h-145.408l-68.608 169.984h-432.128l-68.608-171.008h-22.528v84.992h-102.4v-84.992h-20.48c-45.056 0-81.92-36.864-81.92-81.92v-500.736c0-45.056 36.864-82.944 82.944-82.944h859.136c45.056 0 82.944 36.864 82.944 82.944v501.76c-1.024 45.056-37.888 81.92-82.944 81.92zM136.192 747.008h33.792v-51.2h-33.792v51.2zM990.208 112.128c0-26.624-21.504-48.128-48.128-48.128h-859.136c-26.624 0-48.128 21.504-48.128 48.128v501.76c0 26.624 21.504 48.128 48.128 48.128h168.96l68.608 171.008h386.048l68.608-171.008h166.912c26.624 0 48.128-21.504 48.128-48.128 0 0 0-501.76 0-501.76zM512 712.192c-168.96 0-307.2-138.24-307.2-307.2s138.24-307.2 307.2-307.2 307.2 138.24 307.2 307.2-138.24 307.2-307.2 307.2zM512 132.608c-150.528 0-273.408 122.88-273.408 273.408s122.88 273.408 273.408 273.408 273.408-122.88 273.408-273.408-122.88-273.408-273.408-273.408zM512 609.792c-112.64 0-204.8-92.16-204.8-204.8s92.16-204.8 204.8-204.8 204.8 92.16 204.8 204.8-92.16 204.8-204.8 204.8zM512 235.008c-94.208 0-171.008 76.8-171.008 171.008s76.8 169.984 171.008 169.984 171.008-76.8 171.008-171.008-76.8-169.984-171.008-169.984zM887.808 627.2c-37.888 0-68.608-30.72-68.608-68.608s30.72-68.608 68.608-68.608c37.888 0 68.608 30.72 68.608 68.608-1.024 37.888-31.744 68.608-68.608 68.608zM887.808 524.8c-18.432 0-33.792 15.36-33.792 33.792s15.36 33.792 33.792 33.792 33.792-15.36 33.792-33.792c0-18.432-15.36-33.792-33.792-33.792z" />
<glyph unicode="&#xe933;" glyph-name="pinterest" d="M303.104-64c-15.36 0-27.648 10.24-29.696 25.6v2.048c-7.168 48.128-16.384 141.312 2.048 219.136l70.656 299.008c-6.144 14.336-16.384 48.128-16.384 91.136 0 94.208 57.344 167.936 131.072 167.936 58.368 0 98.304-43.008 98.304-106.496 0-35.84-13.312-80.896-28.672-128-8.192-25.6-16.384-51.2-21.504-76.8-5.12-20.48-1.024-39.936 11.264-55.296 13.312-16.384 32.768-25.6 56.32-25.6 88.064 0 156.672 121.856 156.672 276.48 0 118.784-80.896 193.536-211.968 193.536-165.888 0-254.976-126.976-254.976-246.784 0-39.936 10.24-70.656 31.744-96.256 13.312-15.36 18.432-27.648 12.288-51.2-1.024-6.144-4.096-15.36-6.144-25.6l-5.12-19.456c-7.168-25.6-32.768-38.912-58.368-28.672-80.896 32.768-129.024 120.832-129.024 235.52-1.024 183.296 157.696 373.76 422.912 373.76 236.544 0 378.88-175.104 378.88-344.064 0-236.544-137.216-407.552-325.632-407.552-47.104 0-94.208 17.408-126.976 45.056-10.24-39.936-24.576-97.28-28.672-112.64-22.528-80.896-79.872-160.768-104.448-191.488-7.168-9.216-15.36-13.312-24.576-13.312zM459.776 696.832c-48.128 0-86.016-54.272-86.016-123.904 0-47.104 15.36-78.848 15.36-78.848l3.072-7.168-2.048-8.192-72.704-306.176c-10.24-45.056-12.288-104.448-6.144-168.96 26.624 36.864 61.44 93.184 75.776 147.456 7.168 24.576 38.912 152.576 38.912 154.624l14.336 56.32 26.624-51.2c15.36-28.672 63.488-58.368 117.76-58.368 165.888 0 281.6 149.504 281.6 363.52 0 147.456-124.928 300.032-333.824 300.032-262.144 0-379.904-192.512-379.904-329.728 0-96.256 36.864-166.912 100.352-193.536l5.12 18.432c2.048 10.24 5.12 20.48 6.144 25.6 1.024 4.096 1.024 5.12 1.024 5.12s-1.024 1.024-5.12 6.144c-28.672 33.792-41.984 74.752-41.984 124.928 0 165.888 129.024 291.84 299.008 291.84 155.648 0 256-93.184 256-237.568 0-183.296-86.016-321.536-200.704-321.536-36.864 0-69.632 15.36-91.136 41.984-20.48 25.6-27.648 59.392-19.456 93.184 6.144 26.624 14.336 53.248 22.528 79.872 13.312 44.032 26.624 84.992 26.624 114.688 3.072 18.432-2.048 61.44-51.2 61.44z" />
<glyph unicode="&#xe934;" glyph-name="play" d="M157.696-56.832c-3.072 0-6.144 1.024-9.216 2.048-7.168 3.072-11.264 10.24-11.264 18.432v968.704c0 7.168 4.096 14.336 11.264 18.432 7.168 3.072 15.36 3.072 21.504-1.024l708.608-489.472c5.12-4.096 9.216-10.24 9.216-17.408s-3.072-13.312-9.216-16.384l-709.632-479.232c-3.072-2.048-7.168-4.096-11.264-4.096zM178.176 892.416v-889.856l652.288 440.32-652.288 449.536z" />
<glyph unicode="&#xe935;" glyph-name="playlist" d="M536.576 453.12c0 4.096-2.048 8.192-4.096 11.264l-496.64 487.424c-5.12 4.096-11.264 5.12-17.408 3.072-5.12-3.072-9.216-8.192-9.216-14.336v-982.016c0-6.144 4.096-12.288 9.216-14.336 2.048-1.024 4.096-1.024 6.144-1.024 4.096 0 8.192 2.048 11.264 4.096l496.64 494.592c2.048 3.072 4.096 7.168 4.096 11.264zM39.936-4.608v908.288l459.776-450.56-459.776-457.728zM1011.712 98.816h-770.048c-4.096 0-8.192-2.048-11.264-5.12l-121.856-126.976c-4.096-4.096-5.12-11.264-3.072-16.384 2.048-6.144 8.192-9.216 14.336-9.216h891.904c8.192 0 15.36 7.168 15.36 15.36v126.976c0 8.192-7.168 15.36-15.36 15.36zM996.352-28.16h-840.704l92.16 96.256h748.544v-96.256zM1011.712 531.968h-439.296c-6.144 0-11.264-3.072-14.336-9.216s-2.048-12.288 2.048-16.384l45.056-53.248-53.248-63.488c-4.096-4.096-5.12-11.264-2.048-16.384 2.048-5.12 8.192-9.216 14.336-9.216h447.488c8.192 0 15.36 7.168 15.36 15.36v137.216c0 8.192-7.168 15.36-15.36 15.36zM996.352 394.752h-399.36l40.96 48.128c5.12 6.144 5.12 14.336 0 19.456l-31.744 37.888h391.168v-105.472zM1011.712 314.88h-546.816c-4.096 0-8.192-2.048-11.264-4.096l-123.904-125.952c-4.096-4.096-5.12-11.264-3.072-16.384 2.048-6.144 8.192-9.216 14.336-9.216h670.72c8.192 0 15.36 7.168 15.36 15.36v124.928c0 8.192-7.168 15.36-15.36 15.36zM996.352 188.928h-618.496l93.184 95.232h525.312v-95.232zM1011.712 954.88h-890.88c-6.144 0-12.288-4.096-14.336-9.216s-1.024-12.288 3.072-16.384l125.952-128c3.072-3.072 7.168-4.096 11.264-4.096h764.928c8.192 0 15.36 7.168 15.36 15.36v126.976c0 8.192-7.168 15.36-15.36 15.36zM996.352 827.904h-743.424l-95.232 96.256h838.656v-96.256zM1011.712 748.032h-664.576c-6.144 0-12.288-4.096-14.336-9.216-2.048-6.144-1.024-12.288 3.072-16.384l125.952-125.952c3.072-3.072 7.168-4.096 11.264-4.096h538.624c8.192 0 15.36 7.168 15.36 15.36v124.928c0 8.192-7.168 15.36-15.36 15.36zM996.352 622.080h-517.12l-95.232 95.232h612.352v-95.232z" />
<glyph unicode="&#xe936;" glyph-name="playlist-close-sidebar" d="M980.992 258.56v-75.776h-155.648v75.776h155.648zM1021.952 299.52h-237.568v-157.696h237.568v157.696zM980.992 485.888v-75.776h-155.648v75.776h155.648zM1021.952 526.848h-237.568v-157.696h237.568v157.696zM980.992 32.256v-55.296l-155.648 1.024v54.272h155.648zM1021.952 73.216h-237.568v-136.192l237.568-1.024v137.216zM980.992 712.192v-75.776h-155.648v75.776h155.648zM1021.952 753.152h-237.568v-157.696h237.568v157.696zM980.992 919.040v-55.296h-155.648v55.296h155.648zM1021.952 960h-237.568v-137.216h237.568v137.216zM655.36 920.064v-165.888l-23.552 23.552c-8.192 8.192-18.432 11.264-28.672 11.264s-21.504-4.096-28.672-12.288l-216.064-216.064-216.064 216.064c-8.192 8.192-18.432 12.288-28.672 12.288s-20.48-4.096-28.672-11.264l-45.056-44.032v186.368h615.424zM39.936 657.92l207.872-208.896-207.872-207.872v416.768zM655.36 636.416v-372.736l-186.368 186.368 186.368 186.368zM358.4 338.432l216.064-217.088c7.168-8.192 18.432-12.288 28.672-12.288 0 0 0 0 0 0 11.264 0 21.504 4.096 28.672 12.288l23.552 23.552v-168.96h-615.424v190.464l45.056-44.032c8.192-8.192 18.432-11.264 28.672-11.264s21.504 4.096 28.672 12.288l216.064 215.040zM696.32 961.024h-697.344v-1026.048h697.344v1026.048zM358.4 502.272l244.736 245.76 53.248-52.224-244.736-245.76 244.736-245.76-53.248-53.248-244.736 245.76-244.736-245.76-53.248 52.224 244.736 245.76-244.736 246.784 53.248 52.224 244.736-245.76z" />
<glyph unicode="&#xe937;" glyph-name="playlist-sidebar" d="M980.992 258.56v-75.776h-155.648v75.776h155.648zM1021.952 299.52h-237.568v-157.696h237.568v157.696zM980.992 485.888v-75.776h-155.648v75.776h155.648zM1021.952 526.848h-237.568v-157.696h237.568v157.696zM980.992 32.256v-55.296l-155.648 1.024v54.272h155.648zM1021.952 73.216h-237.568v-136.192l237.568-1.024v137.216zM980.992 712.192v-75.776h-155.648v75.776h155.648zM1021.952 753.152h-237.568v-157.696h237.568v157.696zM980.992 919.040v-55.296h-155.648v55.296h155.648zM1021.952 960h-237.568v-137.216h237.568v137.216zM-1.024 961.024v-1026.048h697.344v1026.048h-697.344zM656.384 204.288v0l-1.024-59.392v-168.96h-615.424v944.128h615.424v-223.232l1.024-1.024-1.024-1.024v-489.472l1.024-1.024z" />
<glyph unicode="&#xe938;" glyph-name="plus" d="M1005.568 463.36h-478.208v478.208c0 8.192-7.168 15.36-15.36 15.36s-15.36-7.168-15.36-15.36v-478.208h-478.208c-8.192 0-15.36-7.168-15.36-15.36s7.168-15.36 15.36-15.36h478.208v-478.208c0-8.192 7.168-15.36 15.36-15.36s15.36 7.168 15.36 15.36v478.208h478.208c8.192 0 15.36 7.168 15.36 15.36s-7.168 15.36-15.36 15.36z" />
<glyph unicode="&#xe939;" glyph-name="projects" d="M5.12 954.88v-1013.76h1013.76v1013.76h-1013.76zM46.080 637.44v276.48h271.36v-277.504h-271.36zM358.4 637.44v276.48h301.056v-277.504h-301.056zM358.4 305.664v290.816h301.056v-291.84h-301.056zM358.4-16.896v281.6h301.056v-282.624h-301.056zM700.416-16.896v281.6h277.504v-282.624h-277.504zM700.416 305.664v290.816h277.504v-291.84h-277.504zM700.416 637.44v276.48h277.504v-277.504h-277.504zM317.44 264.704v-282.624h-271.36v282.624h271.36zM317.44 596.48v-291.84h-271.36v291.84h271.36z" />
<glyph unicode="&#xe93a;" glyph-name="quote" d="M1025.024 730.624l-24.576 100.352c-1.024 4.096-4.096 7.168-7.168 9.216-4.096 2.048-8.192 3.072-12.288 1.024-138.24-38.912-248.832-103.424-329.728-194.56-81.92-91.136-122.88-195.584-122.88-310.272 0-84.992 22.528-153.6 68.608-205.824s106.496-77.824 182.272-77.824c64.512 0 118.784 21.504 159.744 63.488s62.464 97.28 62.464 163.84c0 43.008-10.24 80.896-31.744 111.616s-51.2 53.248-91.136 65.536c-8.192 2.048-20.48 6.144-35.84 11.264-67.584 21.504-71.68 35.84-71.68 35.84 0 28.672 22.528 63.488 66.56 102.4 46.080 40.96 106.496 75.776 179.2 104.448 6.144 4.096 10.24 11.264 8.192 19.456zM816.128 630.272c-51.2-46.080-76.8-87.040-76.8-124.928 0-24.576 27.648-44.032 93.184-65.536 16.384-5.12 27.648-9.216 35.84-11.264 32.768-11.264 57.344-28.672 74.752-54.272s25.6-57.344 25.6-94.208c0-59.392-17.408-105.472-53.248-142.336s-80.896-54.272-138.24-54.272c-66.56 0-118.784 22.528-158.72 67.584-39.936 46.080-60.416 107.52-60.416 185.344 0 107.52 38.912 204.8 115.712 289.792 73.728 82.944 175.104 143.36 300.032 180.224l18.432-72.704c-71.68-26.624-130.048-62.464-176.128-103.424zM477.184 830.976c-1.024 4.096-4.096 7.168-7.168 9.216-4.096 2.048-8.192 3.072-12.288 1.024-138.24-38.912-248.832-103.424-329.728-194.56-81.92-91.136-122.88-195.584-122.88-310.272 0-84.992 22.528-153.6 68.608-205.824s106.496-77.824 182.272-77.824c64.512 0 118.784 21.504 159.744 63.488s62.464 97.28 62.464 163.84c0 43.008-10.24 80.896-31.744 111.616s-51.2 53.248-91.136 65.536c-8.192 2.048-20.48 6.144-35.84 11.264-67.584 21.504-71.68 35.84-71.68 35.84 0 28.672 22.528 63.488 66.56 102.4 46.080 40.96 105.472 75.776 179.2 104.448 7.168 3.072 11.264 10.24 9.216 18.432l-25.6 101.376zM293.888 630.272c-51.2-46.080-76.8-87.040-76.8-124.928 0-24.576 27.648-44.032 93.184-65.536 16.384-5.12 27.648-9.216 35.84-11.264 32.768-11.264 57.344-28.672 74.752-54.272s25.6-57.344 25.6-94.208c0-59.392-17.408-105.472-53.248-142.336s-80.896-54.272-138.24-54.272c-66.56 0-118.784 22.528-158.72 67.584-39.936 46.080-60.416 107.52-60.416 185.344 0 107.52 38.912 204.8 115.712 289.792 73.728 82.944 175.104 143.36 300.032 180.224l18.432-72.704c-71.68-26.624-130.048-62.464-176.128-103.424z" />
<glyph unicode="&#xe93b;" glyph-name="quote-thin" d="M1019.904 752.128l-24.576 100.352c-1.024 3.072-2.048 5.12-5.12 6.144-2.048 1.024-5.12 2.048-8.192 1.024-137.216-37.888-247.808-103.424-327.68-192.512-80.896-90.112-121.856-193.536-121.856-307.2 0-83.968 22.528-151.552 66.56-201.728 45.056-51.2 104.448-76.8 178.176-76.8 63.488 0 115.712 20.48 156.672 61.44s61.44 95.232 61.44 159.744c0 41.984-10.24 78.848-30.72 108.544s-50.176 51.2-88.064 63.488c-8.192 2.048-20.48 6.144-35.84 11.264-73.728 23.552-75.776 38.912-75.776 40.96 0 30.72 22.528 66.56 67.584 106.496 46.080 40.96 106.496 76.8 180.224 105.472 6.144 3.072 8.192 8.192 7.168 13.312zM819.2 648.704c-50.176-45.056-74.752-84.992-74.752-121.856 0-21.504 27.648-39.936 89.088-60.416 16.384-5.12 27.648-9.216 35.84-11.264 33.792-11.264 59.392-29.696 76.8-56.32s26.624-58.368 26.624-97.28c0-59.392-18.432-108.544-55.296-145.408s-83.968-55.296-142.336-55.296c-64.512 1.024-119.808 24.576-160.768 70.656s-61.44 109.568-61.44 188.416c0 108.544 38.912 206.848 116.736 293.888 75.776 84.992 179.2 146.432 308.224 183.296l20.48-81.92c-72.704-28.672-133.12-64.512-179.2-106.496zM473.088 852.48c-1.024 3.072-2.048 5.12-5.12 6.144-2.048 1.024-5.12 2.048-8.192 1.024-137.216-37.888-246.784-103.424-327.68-192.512-80.896-90.112-121.856-193.536-121.856-307.2 0-83.968 22.528-151.552 66.56-201.728 45.056-51.2 104.448-76.8 178.176-76.8 63.488 0 115.712 20.48 156.672 61.44s61.44 95.232 61.44 159.744c0 41.984-10.24 78.848-30.72 108.544s-50.176 51.2-88.064 63.488c-8.192 2.048-20.48 6.144-35.84 11.264-72.704 23.552-75.776 38.912-75.776 40.96 0 30.72 22.528 66.56 67.584 106.496 46.080 40.96 106.496 76.8 180.224 105.472 5.12 2.048 7.168 7.168 6.144 12.288l-23.552 101.376zM296.96 648.704c-50.176-45.056-74.752-84.992-74.752-121.856 0-21.504 27.648-39.936 89.088-60.416 16.384-5.12 27.648-9.216 35.84-11.264 33.792-11.264 59.392-29.696 76.8-56.32s26.624-58.368 26.624-97.28c0-59.392-18.432-108.544-55.296-145.408s-83.968-55.296-142.336-55.296c-64.512 1.024-119.808 24.576-160.768 70.656s-61.44 109.568-61.44 188.416c0 108.544 38.912 206.848 116.736 293.888 75.776 84.992 179.2 146.432 308.224 183.296l20.48-81.92c-72.704-28.672-133.12-64.512-179.2-106.496z" />
<glyph unicode="&#xe93c;" glyph-name="quote-thiner" d="M501.76 752.128l-23.552 101.376c-1.024 3.072-2.048 7.168-8.192 9.216-4.096 2.048-8.192 2.048-12.288 1.024-135.168-36.864-246.784-102.4-329.728-193.536-81.92-91.136-122.88-195.584-122.88-310.272 0-84.992 22.528-153.6 67.584-204.8 46.080-52.224 107.52-78.848 182.272-78.848 64.512 0 118.784 21.504 160.768 62.464s62.464 96.256 62.464 163.84c0 44.032-10.24 80.896-31.744 111.616s-52.224 53.248-91.136 65.536c-8.192 2.048-19.456 6.144-35.84 11.264-67.584 21.504-71.68 35.84-72.704 35.84 0 29.696 22.528 63.488 65.536 102.4 46.080 40.96 106.496 76.8 179.2 104.448 8.192 3.072 11.264 10.24 10.24 18.432zM488.448 743.936c-72.704-28.672-134.144-64.512-182.272-106.496-46.080-40.96-69.632-77.824-69.632-110.592 0-7.168 10.24-23.552 79.872-46.080 15.36-5.12 27.648-9.216 35.84-11.264 36.864-12.288 65.536-32.768 84.992-61.44s29.696-64.512 29.696-105.472c0-63.488-20.48-116.736-60.416-155.648s-91.136-60.416-152.576-60.416c-71.68 0-130.048 25.6-174.080 74.752-43.008 49.152-65.536 115.712-65.536 198.656 0 112.64 40.96 215.040 120.832 304.128 80.896 90.112 190.464 153.6 325.632 191.488 0 0 1.024 0 1.024 0 1.024 0 2.048-1.024 4.096-1.024 1.024 0 1.024 0 2.048-3.072l23.552-101.376c0-1.024 1.024-5.12-3.072-6.144zM996.352 752.128l-23.552 101.376c-1.024 3.072-2.048 7.168-8.192 9.216-4.096 2.048-8.192 2.048-12.288 1.024-136.192-36.864-246.784-102.4-329.728-193.536-81.92-91.136-122.88-195.584-122.88-310.272 0-84.992 22.528-153.6 67.584-204.8 46.080-52.224 107.52-78.848 182.272-78.848 64.512 0 118.784 21.504 160.768 62.464s62.464 96.256 62.464 163.84c0 44.032-10.24 80.896-31.744 111.616s-52.224 53.248-91.136 65.536c-8.192 2.048-20.48 6.144-35.84 11.264-67.584 21.504-71.68 35.84-72.704 35.84 0 29.696 22.528 63.488 65.536 102.4 46.080 40.96 106.496 76.8 179.2 104.448 8.192 3.072 11.264 10.24 10.24 18.432zM983.040 743.936c-72.704-28.672-134.144-64.512-182.272-106.496-46.080-40.96-69.632-77.824-69.632-110.592 0-7.168 10.24-23.552 79.872-46.080 15.36-5.12 27.648-9.216 35.84-11.264 36.864-12.288 65.536-32.768 84.992-61.44 20.48-28.672 30.72-64.512 30.72-105.472 0-63.488-20.48-116.736-60.416-155.648s-91.136-60.416-152.576-60.416c-71.68 0-130.048 25.6-174.080 74.752-43.008 49.152-65.536 115.712-65.536 198.656 0 112.64 40.96 215.040 120.832 304.128 80.896 90.112 190.464 153.6 325.632 191.488 0 0 1.024 0 1.024 0 1.024 0 2.048-1.024 4.096-1.024 1.024 0 1.024 0 2.048-3.072l23.552-101.376c-1.024-1.024-1.024-5.12-4.096-6.144z" />
<glyph unicode="&#xe93d;" glyph-name="reddit" d="M380.928 201.216l-8.192 7.168c-4.096 3.072-8.192 5.12-13.312 6.144s-10.24-1.024-13.312-4.096c-4.096-4.096-7.168-8.192-7.168-13.312s2.048-10.24 5.12-14.336c1.024 0 4.096-3.072 10.24-9.216 6.144-5.12 16.384-11.264 29.696-18.432 13.312-6.144 30.72-12.288 51.2-18.432 20.48-5.12 45.056-8.192 74.752-8.192s55.296 2.048 76.8 8.192c21.504 5.12 38.912 11.264 53.248 18.432 13.312 6.144 23.552 12.288 30.72 18.432 7.168 5.12 10.24 8.192 11.264 9.216 3.072 4.096 5.12 8.192 5.12 13.312s-1.024 9.216-5.12 13.312c-3.072 3.072-8.192 5.12-13.312 5.12s-10.24-1.024-13.312-5.12l-8.192-6.144c-1.024-9.216-9.216-14.336-26.624-15.36s-31.744-6.144-45.056-15.36c-12.288-9.216-33.792-11.264-64.512-7.168s-51.2 6.144-63.488 6.144c-11.264-1.024-25.6 4.096-41.984 14.336s-24.576 15.36-24.576 15.36zM667.648 307.712c20.48 0 36.864 6.144 51.2 20.48 13.312 14.336 20.48 30.72 20.48 51.2s-6.144 36.864-20.48 51.2c-14.336 13.312-30.72 20.48-51.2 20.48s-37.888-6.144-52.224-20.48c-13.312-14.336-20.48-30.72-20.48-51.2s6.144-36.864 20.48-51.2c14.336-13.312 31.744-20.48 52.224-20.48zM1014.784 504.32c-6.144 14.336-15.36 27.648-25.6 37.888-11.264 11.264-23.552 19.456-37.888 25.6s-29.696 9.216-46.080 9.216c-28.672 0-54.272-9.216-76.8-28.672 0 0 0 0-1.024 0 0 0 0 0 0 0s0-1.024 0-1.024c0 0-1.024-1.024-1.024-1.024-38.912 23.552-81.92 43.008-130.048 58.368-49.152 15.36-102.4 23.552-158.72 25.6 0 0 0 1.024 0 1.024s0 1.024 0 1.024l66.56 190.464 167.936-39.936c0-26.624 9.216-49.152 27.648-67.584s40.96-27.648 67.584-27.648c27.648 0 50.176 9.216 68.608 28.672 18.432 18.432 27.648 40.96 27.648 67.584s-9.216 50.176-27.648 68.608c-18.432 18.432-40.96 27.648-68.608 27.648-19.456 0-37.888-5.12-53.248-16.384-16.384-11.264-27.648-26.624-35.84-44.032l-197.632 48.128-82.944-234.496h7.168c0 0 0 0 0 0h-7.168l-1.024-2.048c-58.368-1.024-112.64-9.216-162.816-24.576-51.2-15.36-96.256-35.84-136.192-59.392-1.024 1.024-2.048 1.024-3.072 2.048 0 0 0 0 0 0-21.504 19.456-48.128 28.672-77.824 28.672-16.384 0-31.744-3.072-46.080-9.216-13.312-6.144-25.6-14.336-36.864-25.6s-19.456-23.552-25.6-37.888c-5.12-14.336-8.192-29.696-8.192-45.056 0-21.504 5.12-39.936 14.336-57.344s22.528-31.744 38.912-41.984c0 0 0-1.024 0-1.024s0-1.024 1.024-1.024c-1.024-5.12-1.024-11.264-2.048-16.384-1.024-6.144-1.024-12.288-1.024-18.432 0-41.984 11.264-81.92 34.816-119.808 24.576-37.888 57.344-69.632 99.328-98.304s91.136-50.176 146.432-66.56c55.296-16.384 115.712-24.576 179.2-24.576 62.464 0 122.88 8.192 178.176 24.576s104.448 38.912 146.432 66.56c41.984 27.648 75.776 60.416 99.328 98.304s35.84 77.824 35.84 119.808c0 12.288-1.024 23.552-3.072 35.84 0 0 0 0 0 0l-2.048 8.192c0 0 0 0 0 1.024l2.048-8.192c17.408 10.24 30.72 24.576 40.96 41.984s15.36 36.864 15.36 57.344c0 14.336-3.072 29.696-9.216 44.032zM121.856 430.592c22.528 32.768 52.224 61.44 90.112 86.016s82.944 44.032 134.144 58.368c52.224 14.336 106.496 21.504 164.864 21.504s113.664-7.168 164.864-21.504c51.2-14.336 96.256-33.792 133.12-59.392 38.912-23.552 68.608-52.224 91.136-86.016 22.528-32.768 33.792-68.608 33.792-105.472s-10.24-71.68-31.744-105.472c-22.528-32.768-53.248-61.44-91.136-86.016-38.912-24.576-83.968-44.032-135.168-58.368-52.224-14.336-106.496-21.504-164.864-21.504s-113.664 7.168-164.864 21.504-96.256 33.792-134.144 58.368c-37.888 24.576-67.584 53.248-90.112 86.016s-33.792 68.608-33.792 105.472c0 37.888 11.264 72.704 33.792 106.496zM964.608 355.84c0 0 0 0 0 0s0 1.024 0 0 0 0 0 0zM365.568 307.712c19.456 0 36.864 6.144 51.2 20.48s21.504 30.72 21.504 51.2c0 19.456-7.168 36.864-21.504 51.2-14.336 13.312-30.72 20.48-51.2 20.48s-36.864-6.144-51.2-20.48c-13.312-14.336-20.48-30.72-20.48-51.2s6.144-36.864 20.48-51.2c14.336-13.312 31.744-20.48 51.2-20.48z" />
<glyph unicode="&#xe93e;" glyph-name="reload-3" d="M492.544 745.984v156.672c0 37.888-25.6 57.344-52.224 57.344-9.216 0-23.552-3.072-38.912-15.36l-199.68-167.936c-15.36-13.312-24.576-31.744-24.576-50.176 0-19.456 9.216-37.888 24.576-50.176l200.704-167.936c15.36-12.288 29.696-15.36 38.912-15.36 25.6 0 52.224 19.456 52.224 57.344v154.624c190.464-11.264 343.040-169.984 343.040-363.52 0-200.704-163.84-364.544-364.544-364.544s-364.544 163.84-364.544 364.544c0 26.624 3.072 52.224 8.192 77.824 2.048 11.264-5.12 22.528-16.384 24.576s-22.528-5.12-24.576-16.384c-6.144-28.672-9.216-57.344-9.216-86.016 0-223.232 182.272-405.504 405.504-405.504s405.504 182.272 405.504 405.504c1.024 217.088-169.984 393.216-384 404.48zM451.584 550.4c0-10.24-4.096-16.384-10.24-16.384-2.048 0-6.144 1.024-12.288 5.12l-200.704 168.96c-6.144 5.12-9.216 12.288-9.216 18.432 0 7.168 3.072 14.336 9.216 18.432l200.704 167.936c6.144 5.12 10.24 5.12 12.288 5.12 6.144 0 10.24-6.144 10.24-16.384v-351.232z" />
<glyph unicode="&#xe93f;" glyph-name="reply" d="M468.992 597.504v277.504c0 8.192-5.12 16.384-13.312 19.456s-17.408 1.024-23.552-5.12l-425.984-425.984c-8.192-8.192-8.192-21.504 0-29.696l427.008-427.008c4.096-4.096 9.216-6.144 15.36-6.144 3.072 0 5.12 1.024 8.192 2.048 8.192 3.072 13.312 11.264 13.312 19.456v276.48c92.16-5.12 452.608-35.84 513.024-239.616 3.072-10.24 13.312-16.384 23.552-15.36s18.432 10.24 18.432 21.504c-1.024 488.448-455.68 529.408-556.032 532.48zM448.512 341.504c-6.144-1.024-11.264-2.048-15.36-6.144s-6.144-9.216-6.144-15.36v-246.784l-375.808 374.784 374.784 374.784v-246.784c0-6.144 2.048-11.264 6.144-15.36s9.216-7.168 15.36-6.144h7.168c80.896 0 462.848-20.48 519.168-394.24-144.384 175.104-507.904 181.248-525.312 181.248z" />
<glyph unicode="&#xe940;" glyph-name="right" d="M780.288 448c0 5.12-2.048 10.24-6.144 14.336l-495.616 493.568c-8.192 8.192-20.48 8.192-28.672 0s-8.192-20.48 0-28.672l481.28-479.232-481.28-479.232c-8.192-8.192-8.192-20.48 0-28.672s20.48-8.192 28.672 0l495.616 493.568c4.096 4.096 6.144 9.216 6.144 14.336z" />
<glyph unicode="&#xe941;" glyph-name="right-arrow" d="M1012.736 462.336v0l-418.816 385.024c-8.192 8.192-20.48 8.192-27.648 0-8.192-8.192-8.192-20.48 0-28.672l380.928-350.208h-924.672c-11.264 0-20.48-8.192-20.48-20.48 0-11.264 8.192-20.48 20.48-20.48h924.672l-379.904-345.088c-7.168-7.168-8.192-18.432-2.048-26.624l1.024-1.024c4.096-4.096 9.216-6.144 14.336-6.144s10.24 2.048 13.312 5.12l418.816 379.904c3.072 3.072 5.12 8.192 6.144 12.288 1.024 8.192-4.096 14.336-6.144 16.384z" />
<glyph unicode="&#xe942;" glyph-name="right-arrow-thin" d="M611.369 58.208c-1.946-1.948-1.952-5.126-0.019-7.081 1.013-0.992 2.298-1.476 3.584-1.476 1.299 0 2.545 0.489 3.497 1.451l393.235 393.184c1.041 0.937 1.668 2.259 1.668 3.733 0 0.83-0.194 1.587-0.531 2.255l-0.028 0.055c-0.235 0.469-0.546 0.905-0.928 1.286l-393.378 393.253c-1.954 1.953-5.146 1.953-7.1 0-1.952-1.952-1.952-5.146 0-7.099l384.855-384.729h-980.535c-2.769 0-5.022-2.253-5.022-5.022s2.253-5.022 5.022-5.022h980.471l-384.791-384.789z" />
<glyph unicode="&#xe943;" glyph-name="right-arrow-thiner" d="M989.184 448c0 0 1.024 0 0 0 1.024 0 1.024 0 0 0 0 1.024 0 2.048 0 2.048s0 0 0 1.024c0 0 0 1.024-1.024 1.024l-376.832 406.528c-2.048 2.048-5.12 2.048-7.168 0s-2.048-5.12 0-7.168l368.64-398.336h-954.368c-3.072 0-5.12-2.048-5.12-5.12s2.048-5.12 5.12-5.12h954.368l-368.64-414.72c-2.048-2.048-2.048-5.12 0-7.168 1.024-1.024 2.048-1.024 3.072-1.024s3.072 1.024 4.096 2.048l376.832 423.936c0 0 0 1.024 0 1.024s0 0 0 1.024c1.024-1.024 1.024-1.024 1.024 0z" />
<glyph unicode="&#xe944;" glyph-name="screen-maximise" d="M202.752 913.92v41.984h-179.2l-19.456-19.456v-180.224h41.984v129.024l296.96-297.984 29.696 29.696-297.984 296.96zM343.040 308.736l-296.96-297.984v128h-41.984v-180.224l19.456-19.456h180.224v43.008h-129.024l297.984 296.96zM978.944 138.752v-129.024l-299.008 300.032-29.696-29.696 297.984-296.96h-126.976v-41.984h180.224l19.456 19.456v178.176zM679.936 586.24l297.984 299.008v-128h41.984v179.2l-19.456 19.456h-179.2v-41.984h128l-299.008-297.984z" />
<glyph unicode="&#xe945;" glyph-name="screen-minimise" d="M330.752 658.944l-297.984 296.96-28.672-28.672 296.96-296.96h-128v-40.96h180.224l18.432 18.432v179.2h-40.96zM173.056 307.712v-40.96h128l-296.96-297.984 28.672-28.672 296.96 296.96v-128h40.96v180.224l-18.432 18.432zM850.944 266.752v40.96h-180.224l-18.432-18.432v-180.224h40.96v128l297.984-296.96 28.672 28.672-296.96 297.984zM850.944 588.288v40.96h-128l296.96 297.984-28.672 28.672-297.984-296.96v128h-40.96v-180.224l18.432-18.432z" />
<glyph unicode="&#xe946;" glyph-name="search" d="M999.424-30.208l-285.696 299.008c72.704 72.704 119.808 175.104 119.808 285.696 0 222.208-184.32 405.504-405.504 405.504-226.304 0-409.6-183.296-409.6-405.504s183.296-405.504 405.504-405.504c98.304 0 187.392 33.792 260.096 94.208l285.696-299.008c8.192-8.192 12.288-8.192 17.408-8.192 4.096 0 8.192 0 12.288 4.096 8.192 8.192 8.192 21.504 0 29.696zM428.032 187.904c-200.704 0-366.592 165.888-366.592 366.592s165.888 367.616 366.592 367.616 366.592-166.912 366.592-367.616c0-204.8-165.888-366.592-366.592-366.592z" />
<glyph unicode="&#xe947;" glyph-name="settings" d="M984.064 549.376h-87.040c-9.216 33.792-22.528 65.536-39.936 95.232l62.464 62.464c15.36 15.36 15.36 39.936 0 55.296l-87.040 87.040c-15.36 15.36-40.96 15.36-56.32 0l-62.464-62.464c-30.72 18.432-63.488 31.744-97.28 40.96v92.16c0 21.504-17.408 39.936-39.936 39.936h-122.88c-21.504 0-39.936-17.408-39.936-39.936v-91.136c-34.816-9.216-67.584-23.552-99.328-40.96l-65.536 65.536c-15.36 15.36-40.96 15.36-55.296 0l-87.040-88.064c-15.36-15.36-15.36-39.936 0-55.296l66.56-66.56c-17.408-29.696-29.696-61.44-38.912-94.208h-94.208c-21.504 0-39.936-17.408-39.936-39.936v-122.88c0-21.504 17.408-39.936 39.936-39.936h94.208c9.216-33.792 22.528-66.56 40.96-97.28l-65.536-65.536c-7.168-7.168-11.264-17.408-11.264-27.648s4.096-20.48 11.264-27.648l87.040-87.040c15.36-15.36 40.96-15.36 55.296 0l66.56 66.56c29.696-17.408 62.464-30.72 95.232-39.936v-91.136c0-21.504 17.408-39.936 39.936-39.936h123.904c21.504 0 39.936 17.408 39.936 39.936v91.136c32.768 9.216 64.512 21.504 94.208 38.912l62.464-62.464c15.36-15.36 40.96-15.36 55.296 0l87.040 87.040c15.36 15.36 15.36 39.936 0 55.296l-61.44 61.44c18.432 30.72 31.744 64.512 40.96 99.328h87.040c21.504 0 39.936 17.408 39.936 39.936v121.856c0 22.528-17.408 39.936-38.912 39.936zM984.064 386.56h-118.784l-3.072-15.36c-9.216-40.96-25.6-79.872-48.128-114.688l-8.192-13.312 83.968-83.968-87.040-87.040-86.016 82.944-13.312-8.192c-34.816-21.504-71.68-36.864-110.592-46.080l-15.36-3.072v-121.856h-123.904v121.856l-15.36 3.072c-39.936 9.216-77.824 24.576-112.64 46.080l-13.312 8.192-88.064-88.064-87.040 87.040 88.064 89.088-8.192 13.312c-22.528 34.816-38.912 73.728-47.104 113.664l-4.096 16.384h-125.952v122.88h125.952l3.072 15.36c8.192 38.912 23.552 76.8 46.080 110.592l8.192 13.312-88.064 88.064 87.040 87.040 88.064-88.064 13.312 8.192c35.84 22.528 73.728 38.912 114.688 48.128l15.36 3.072v124.928h123.904v-121.856l15.36-3.072c39.936-9.216 78.848-24.576 113.664-47.104l13.312-8.192 83.968 83.968 87.040-87.040-84.992-84.992 8.192-13.312c21.504-34.816 37.888-72.704 46.080-112.64l3.072-15.36h118.784l2.048-123.904zM515.072 650.752c-111.616 0-202.752-91.136-202.752-202.752s91.136-202.752 202.752-202.752 202.752 91.136 202.752 202.752c1.024 111.616-90.112 202.752-202.752 202.752zM515.072 284.16c-90.112 0-163.84 73.728-163.84 163.84s73.728 163.84 163.84 163.84 163.84-73.728 163.84-163.84-72.704-163.84-163.84-163.84z" />
<glyph unicode="&#xe948;" glyph-name="share" d="M690.176 235.008c-8.192-8.192-16.384-17.408-22.528-28.672l-294.912 179.2c8.192 19.456 12.288 39.936 12.288 63.488 0 21.504-4.096 43.008-12.288 63.488l293.888 177.152c32.768-50.176 86.016-79.872 145.408-79.872 95.232 0 173.056 77.824 173.056 173.056s-76.8 173.056-173.056 173.056-173.056-77.824-173.056-173.056c0-20.48 4.096-41.984 11.264-60.416l-294.912-178.176c-31.744 48.128-86.016 77.824-144.384 77.824-95.232 0-173.056-77.824-173.056-173.056s77.824-173.056 173.056-173.056c57.344 0 110.592 28.672 144.384 77.824l294.912-178.176c-7.168-20.48-11.264-39.936-11.264-61.44 0-46.080 18.432-89.088 51.2-121.856s75.776-51.2 121.856-51.2c45.056 0 90.112 18.432 121.856 51.2 32.768 32.768 51.2 75.776 51.2 121.856s-18.432 89.088-51.2 121.856c-67.584 66.56-177.152 66.56-243.712-1.024zM948.224 114.176c-1.024-36.864-15.36-71.68-39.936-96.256-53.248-53.248-139.264-53.248-192.512 0-25.6 25.6-39.936 60.416-39.936 96.256s14.336 70.656 39.936 96.256c25.6 25.6 60.416 39.936 96.256 39.936 36.864 0 69.632-14.336 96.256-39.936s39.936-60.416 39.936-96.256zM675.84 781.824c0 74.752 61.44 136.192 136.192 136.192s136.192-61.44 136.192-136.192-61.44-136.192-136.192-136.192c-74.752 0-136.192 61.44-136.192 136.192zM348.16 449.024c0-74.752-61.44-136.192-136.192-136.192s-136.192 61.44-136.192 136.192 61.44 136.192 136.192 136.192c74.752 0 136.192-61.44 136.192-136.192z" />
<glyph unicode="&#xe949;" glyph-name="share-off" d="M1022.976 446.976v45.056h-636.928c-2.048 7.168-4.096 14.336-6.144 20.48l296.96 179.2c31.744-50.176 87.040-79.872 145.408-79.872 96.256 0 174.080 77.824 174.080 174.080s-77.824 174.080-174.080 174.080-174.080-77.824-174.080-174.080c0-20.48 4.096-40.96 11.264-60.416l-296.96-179.2c-31.744 48.128-86.016 77.824-144.384 77.824-78.848 0-148.48-54.272-168.96-132.096h-48.128v-45.056h43.008c1.024-95.232 77.824-172.032 173.056-172.032 58.368 0 112.64 28.672 144.384 77.824l299.008-181.248c-7.168-20.48-11.264-40.96-11.264-60.416 0-46.080 18.432-90.112 50.176-122.88 32.768-32.768 75.776-50.176 122.88-50.176 46.080 0 90.112 18.432 122.88 50.176 32.768 33.792 50.176 76.8 50.176 122.88s-18.432 90.112-50.176 122.88c-32.768 32.768-76.8 51.2-122.88 51.2s-90.112-18.432-122.88-51.2c-9.216-9.216-16.384-19.456-22.528-28.672l-296.96 180.224c8.192 18.432 12.288 39.936 12.288 61.44h630.784zM685.056 784.896c0 75.776 61.44 137.216 137.216 137.216s137.216-61.44 137.216-137.216-61.44-137.216-137.216-137.216-137.216 61.44-137.216 137.216zM87.040 491.008c19.456 56.32 71.68 93.184 130.048 93.184 59.392 0 112.64-38.912 130.048-93.184h-260.096zM354.304 446.976c-1.024-74.752-61.44-134.144-137.216-134.144-73.728-1.024-135.168 59.392-137.216 134.144h274.432zM686.080 110.080c0 36.864 14.336 69.632 40.96 96.256 25.6 25.6 59.392 39.936 96.256 39.936 35.84 0 71.68-14.336 96.256-39.936 26.624-25.6 40.96-59.392 40.96-96.256s-14.336-69.632-40.96-96.256c-53.248-53.248-140.288-53.248-193.536 0v0c-26.624 26.624-40.96 60.416-39.936 96.256z" />
<glyph unicode="&#xe94a;" glyph-name="shuffle" d="M822.272 430.592c-8.192 7.168-21.504 7.168-28.672-1.024s-7.168-21.504 1.024-28.672l139.264-129.024h-205.824c-51.2 0-123.904 71.68-175.104 125.952-8.192 8.192-20.48 9.216-28.672 1.024s-9.216-20.48-1.024-28.672c90.112-97.28 151.552-139.264 204.8-139.264h204.8l-131.072-112.64c-8.192-7.168-9.216-20.48-2.048-28.672 4.096-5.12 10.24-7.168 15.36-7.168s9.216 2.048 13.312 5.12l173.056 147.456c4.096 4.096 7.168 9.216 7.168 15.36s-2.048 11.264-6.144 15.36l-180.224 164.864zM728.064 634.368h202.752l-129.024-110.592c-8.192-7.168-9.216-20.48-2.048-28.672 4.096-5.12 10.24-7.168 15.36-7.168s9.216 2.048 13.312 5.12l173.056 147.456c4.096 4.096 7.168 9.216 7.168 15.36s-2.048 11.264-6.144 15.36l-180.224 164.864c-8.192 7.168-21.504 7.168-28.672-1.024s-7.168-21.504 1.024-28.672l141.312-130.048h-207.872c-86.016 0-187.392-117.76-286.72-232.448-70.656-81.92-151.552-175.104-192.512-175.104h-223.232c-11.264 0-20.48-9.216-20.48-20.48s9.216-20.48 20.48-20.48h224.256c59.392 0 135.168 88.064 223.232 189.44s188.416 217.088 254.976 217.088zM25.6 638.464h224.256c37.888 0 113.664-84.992 145.408-120.832 4.096-4.096 9.216-7.168 15.36-7.168 5.12 0 9.216 2.048 13.312 5.12 8.192 7.168 9.216 20.48 2.048 28.672-73.728 82.944-129.024 135.168-176.128 135.168h-224.256c-11.264 0-20.48-9.216-20.48-20.48s9.216-20.48 20.48-20.48z" />
<glyph unicode="&#xe94b;" glyph-name="sound" d="M556.032 954.88c-6.144 3.072-12.288 0-15.36-1.024l-2.048-1.024-283.648-267.264c-4.096-4.096-4.096-8.192-4.096-10.24v-29.696h-226.304c-8.192 0-15.36-6.144-15.36-15.36v-421.888c0-8.192 6.144-15.36 15.36-15.36h226.304v-47.104c0-6.144 3.072-9.216 5.12-11.264l284.672-191.488c4.096-3.072 8.192-3.072 9.216-3.072h4.096l2.048 1.024c5.12 3.072 8.192 8.192 8.192 14.336v985.088c1.024 6.144-3.072 11.264-8.192 14.336zM534.528-12.8l-253.952 165.888v50.176c1.024 2.048 1.024 3.072 1.024 5.12v68.608h-30.72v-53.248c0 0-211.968 0-211.968 0v392.192h211.968v-47.104h30.72v62.464c0 1.024-1.024 2.048-1.024 4.096v34.816l253.952 231.424v-914.432zM844.8 844.288c-6.144 6.144-15.36 6.144-21.504 0s-6.144-15.36 0-21.504c94.208-90.112 148.48-228.352 148.48-377.856s-54.272-286.72-147.456-376.832c-6.144-6.144-6.144-15.36 0-21.504 3.072-3.072 7.168-5.12 11.264-5.12s7.168 1.024 10.24 4.096c100.352 96.256 157.696 241.664 157.696 399.36-1.024 156.672-58.368 303.104-158.72 399.36zM736.256 766.464c-7.168 5.12-16.384 3.072-21.504-4.096s-3.072-16.384 4.096-21.504c83.968-58.368 137.216-172.032 137.216-296.96 0-125.952-53.248-240.64-139.264-297.984-7.168-5.12-9.216-14.336-4.096-21.504 3.072-4.096 8.192-7.168 12.288-7.168 3.072 0 6.144 1.024 8.192 3.072 94.208 63.488 152.576 187.392 152.576 323.584 0 134.144-57.344 258.048-149.504 322.56zM642.048 674.304c-7.168 5.12-16.384 3.072-21.504-4.096s-3.072-16.384 4.096-21.504c58.368-39.936 94.208-118.784 94.208-205.824s-36.864-165.888-96.256-206.848c-7.168-5.12-9.216-14.336-4.096-21.504 3.072-4.096 8.192-7.168 12.288-7.168 3.072 0 6.144 1.024 8.192 3.072 67.584 46.080 109.568 134.144 109.568 231.424 1.024 98.304-39.936 186.368-106.496 232.448z" />
<glyph unicode="&#xe94c;" glyph-name="sound-off" d="M556.032 954.88c-6.144 3.072-12.288 0-15.36-1.024l-2.048-1.024-283.648-267.264c-4.096-4.096-4.096-8.192-4.096-10.24v-29.696h-226.304c-8.192 0-15.36-6.144-15.36-15.36v-421.888c0-8.192 6.144-15.36 15.36-15.36h226.304v-47.104c0-6.144 3.072-9.216 5.12-11.264l284.672-191.488c4.096-3.072 8.192-3.072 9.216-3.072h4.096l2.048 1.024c5.12 3.072 8.192 8.192 8.192 14.336v985.088c1.024 6.144-3.072 11.264-8.192 14.336zM534.528-12.8l-253.952 165.888v50.176c1.024 2.048 1.024 3.072 1.024 5.12v68.608h-30.72v-53.248c0 0-211.968 0-211.968 0v392.192h211.968v-47.104h30.72v62.464c0 1.024-1.024 2.048-1.024 4.096v34.816l253.952 231.424v-914.432zM821.248 442.88l176.128 176.128c6.144 6.144 6.144 15.36 0 21.504s-15.36 6.144-21.504 0l-177.152-176.128-176.128 176.128c-6.144 6.144-15.36 6.144-21.504 0s-6.144-15.36 0-21.504l176.128-176.128-176.128-177.152c-6.144-6.144-6.144-15.36 0-21.504 3.072-3.072 7.168-4.096 11.264-4.096s8.192 1.024 11.264 4.096l175.104 176.128 176.128-176.128c3.072-3.072 7.168-4.096 11.264-4.096s8.192 1.024 11.264 4.096c6.144 6.144 6.144 15.36 0 21.504l-176.128 177.152z" />
</font>
</defs>
</svg>
